Поиск

2019 Stephane Belmondo, Sylvain Luc - 2.0 {naïve} [24-96]

2019 Stephane Belmondo, Sylvain Luc - 2.0 {naïve} [24-96]
Стили:
Дата издания диска:
18 октября 2019
Издатель (лейбл):
Номер по каталогу:
NJ7030
Носитель:
WEB
Формат:
PCM
Тип рипа:
tracks
Контейнер:
FLAC (*.flac)
Количество каналов:
2.0
Разрядность/ЧД:
24/96
Битрейт аудио:
lossless
Время звучания:
00:42:57
Наличие сканов:
только обложка

01 - The Melancholy of Rita 03:25
02 - It's Real 02:47
03 - Petite fourmi 01:57
04 - 2.1 03:43
05 - Joey's Smile 03:57
06 - African Waltz 02:55
07 - Les yeux dans l'eau 03:11
08 - 2.0 06:36
09 - Evanescence 03:24
10 - Ribbon in the Sky 03:49
11 - 2.2 03:55
12 - Mort d'un pourri 02:46
13 - Tard le soir 02:53
14 - On the same Road 03:54

Состав:
  • Accordion – Stéphane Belmondo (tracks: 12)
  • Guitar [Nylon, Folk, 12 strings, Electric] – Sylvain Luc
  • Recorded By, Mixed By, Mastered By – Philippe Gaillot
  • Trumpet, Flugelhorn – Stéphane Belmondo
Лог проверки качества
foobar2000 1.4.3 / Dynamic Range Meter 1.1.1
log date: 2021-06-27 22:22:44

--------------------------------------------------------------------------------
Analyzed: Stephane Belmondo, Sylvain Luc / 2.0
--------------------------------------------------------------------------------

DR         Peak         RMS     Duration Track
--------------------------------------------------------------------------------
DR8       -1.00 dB   -11.41 dB      3:26 01-The Melancholy of Rita
DR7       -1.00 dB   -10.01 dB      2:48 02-It's Real
DR9       -1.00 dB   -11.99 dB      1:57 03-Petite fourmi
DR9       -1.00 dB   -12.65 dB      3:44 04-2.1
DR9       -1.00 dB   -12.05 dB      3:57 05-Joey's Smile
DR9       -1.00 dB   -12.08 dB      2:55 06-African Waltz
DR6       -1.00 dB    -8.98 dB      3:12 07-Les yeux dans l'eau
DR11      -1.00 dB   -16.44 dB      6:36 08-2.0
DR8       -1.00 dB   -12.93 dB      3:24 09-Evanescence
DR10      -1.00 dB   -12.78 dB      3:50 10-Ribbon in the Sky
DR7       -1.00 dB   -10.84 dB      3:56 11-2.2
DR9       -1.00 dB   -12.17 dB      2:46 12-Mort d'un pourri
DR8       -1.00 dB   -11.63 dB      2:53 13-Tard le soir
DR10      -1.00 dB   -13.39 dB      3:55 14-On the same Road
--------------------------------------------------------------------------------

Number of tracks:  14
Official DR value: DR9

Samplerate:        96000 Hz
Channels:          2
Bits per sample:   24
Bitrate:           2573 kbps
Codec:             FLAC
================================================================================
10:52
747
Нет комментариев. Ваш будет первым!