Поиск

2019 Simon Mulligan - Latin Jazz {Steinway and Sons} [24-192]

2019 Simon Mulligan - Latin Jazz {Steinway and Sons} [24-192]
Место записи:
Steinway Hall, New York City
Дата издания диска:
6 июля 2019
Номер по каталогу:
STNS 30113
Носитель:
WEB
Формат:
PCM
Тип рипа:
tracks
Контейнер:
FLAC (*.flac)
Количество каналов:
2.0
Разрядность/ЧД:
24/192
Битрейт аудио:
lossless
Наличие сканов:
только обложка

Треклист:

01. Manhã de Carnaval (From "Black Orpheus")  05:11
02. Gentle Rain  08:07
03. Corcovado  04:32
04. Desafinado  05:51
05. How Insensitive  06:00
06. Wave  04:28
07. Out of Nowhere  04:32
08. Look to the Sky  05:41
09. One Note Samba  04:32
10. O Barquinho  05:31
11. Summer Samba  07:04
12. Chega de Saudade  03:52
13. Once I Loved  05:55

Состав:
  • Producer: Jon Feidner
  • Engineer: Lauren Sclafani
  • Assistant Engineer: Melody Nieun Hwang
  • Production Assistant: Renée Oakford
  • Mixing and Mastering: Daniel Shores
  • Executive Producers: Eric Feidner, Jon Feidner
  • Piano Technician: Lauren Sclafani
  • Piano: Steinway Model D #597590 (New York)
Лог проверки качества
foobar2000 1.6.10 / Dynamic Range Meter 1.1.1
log date: 2023-02-14 17:42:39

--------------------------------------------------------------------------------
Analyzed: Simon Mulligan / Latin Jazz
--------------------------------------------------------------------------------

DR         Peak         RMS     Duration Track
--------------------------------------------------------------------------------
DR12      -0.65 dB   -17.89 dB      5:12 01-Manhã de Carnaval (From "Black Orpheus")
DR13      -0.34 dB   -17.78 dB      8:08 02-Gentle Rain
DR14      -0.34 dB   -18.81 dB      4:32 03-Corcovado
DR12      -0.34 dB   -17.27 dB      5:52 04-Desafinado
DR12      -1.92 dB   -19.15 dB      6:00 05-How Insensitive
DR13      -0.34 dB   -17.07 dB      4:28 06-Wave
DR13      -0.64 dB   -17.26 dB      4:33 07-Out of Nowhere
DR12      -0.31 dB   -16.39 dB      5:41 08-Look to the Sky
DR13      -0.34 dB   -16.40 dB      4:32 09-One Note Samba
DR12      -1.23 dB   -17.32 dB      5:31 10-O Barquinho
DR12      -0.34 dB   -17.36 dB      7:05 11-Summer Samba
DR12      -0.30 dB   -14.34 dB      3:52 12-Chega de Saudade
DR13      -1.01 dB   -17.75 dB      5:55 13-Once I Loved
--------------------------------------------------------------------------------

Number of tracks:  13
Official DR value: DR12

Samplerate:        192000 Hz
Channels:          2
Bits per sample:   24
Bitrate:           4662 kbps
Codec:             FLAC
================================================================================
18:50
241
Нет комментариев. Ваш будет первым!