Поиск

2019 Scopes - Scopes {Whirlwind} [24-88,2]

2019 Scopes - Scopes {Whirlwind} [24-88,2]
Дата издания диска:
29 марта 2019
Издатель (лейбл):
Носитель:
WEB
Формат:
PCM
Тип рипа:
tracks+.cue
Контейнер:
APE (*.ape)
Количество каналов:
2.0
Разрядность/ЧД:
24/88,2
Битрейт аудио:
lossless
Время звучания:
00:47:46
Наличие сканов:
web
Наличие водяных знаков:
нет
Релизёр (источник):
M0p94ok

Треклист:

1. Echo of Their Own Prejudices  07:24
2. Chamberlain  06:00
3. Aquaponies  05:42
4. Balance  05:13
5. Whistle  05:15
6. Alter Ego  03:52
7. Lakeview  05:08
8. Nostalgia  04:03
9. Mode  05:09

Доп. инфо:
Лог проверки качества
foobar2000 1.3.16 / Dynamic Range Meter 1.1.1
log date: 2019-04-01 04:13:01

--------------------------------------------------------------------------------
Analyzed: SCOPES / Scopes
--------------------------------------------------------------------------------

DR         Peak         RMS     Duration Track
--------------------------------------------------------------------------------
DR10      -0.20 dB   -11.02 dB      7:25 01-Echo of Their Own Prejudices
DR10      -0.20 dB   -12.61 dB      6:01 02-Chamberlain
DR11      -0.20 dB   -12.62 dB      5:43 03-Aquaponies
DR9       -0.20 dB   -10.71 dB      5:13 04-Balance
DR10      -0.20 dB   -11.80 dB      5:16 05-Whistle
DR11      -0.20 dB   -12.16 dB      3:53 06-Alter Ego
DR10      -0.20 dB   -11.95 dB      5:08 07-Lakeview
DR11      -0.20 dB   -13.52 dB      4:04 08-Nostalgia
DR10      -0.20 dB   -12.43 dB      5:10 09-Mode
--------------------------------------------------------------------------------

Number of tracks:  9
Official DR value: DR10

Samplerate:        88200 Hz
Channels:          2
Bits per sample:   24
Bitrate:           2818 kbps
Codec:             FLAC
================================================================================
Приватный:
Нет (DHT включён)
Размер:
972.51 Мб (1,019,745,860 байт) » файлов: 12
Участники:
1 раздают, 0 качают (1 участников всего)
Внешние участники:
--- [ Обновить ]
For power users only: no seeders - write to support@pro-jazz.com. Для power user: нет сидеров - пишите на support@pro-jazz.com.
19:25
161
Нет комментариев. Ваш будет первым!