Поиск

2019 Scary Goldings - The Ego Trap {Pockets, Inc.} [24-44.1]

2019 Scary Goldings - The Ego Trap {Pockets, Inc.} [24-44.1]
Стили:
Дата издания диска:
12 декабря 2019
Носитель:
WEB
Формат:
PCM
Тип рипа:
tracks
Контейнер:
FLAC (*.flac)
Количество каналов:
2.0
Разрядность/ЧД:
24/44,1
Битрейт аудио:
lossless
Время звучания:
00:41:46
Наличие сканов:
только обложка

01. Here We Go Again  02:24
02. Belly Up  03:28
03. 80s TV Theme ft. Robben Ford  02:47
04. A Serious Blow  03:11
05. Chill Bill  03:30
06. Plant Bass Diet  03:28
07. C'mon Kid, Be A Hero  02:28
08. Take My Jet ft. Robben Ford  04:40
09. Yiddish Wedding Song  02:30
10. The Ego Trap  02:28
11. Humble Strut ft. Robben Ford  04:23
12. Mike, The Sneeze  03:56
13. Ladies Night  02:27

Состав:
  • Bass – Joseph Ayoub, Sam Wilkes (2)
  • Drums – Tamir Barzilay
  • Electric Piano – Jack Conte
  • Engineer – David Boucher (tracks: 1, 3, 8, 11), Ryan Freeland (tracks: 2, 4, 5, 6, 7, 9, 12, 13)
  • Guitar – Ryan Lerman
  • Lead Guitar – Robben Ford
  • Mixed By – Craig Polasko
  • Organ – Larry Goldings
Лог проверки качества
foobar2000 1.5.6 / Dynamic Range Meter 1.1.1
log date: 2021-11-21 16:40:18
--------------------------------------------------------------------------------
Analyzed: Scary Goldings / The Ego Trap
--------------------------------------------------------------------------------
DR         Peak         RMS     Duration Track
--------------------------------------------------------------------------------
DR6       -0.31 dB    -7.27 dB      2:25 01-Here We Go Again
DR6       -0.31 dB    -8.04 dB      3:29 02-Belly Up
DR6       -0.30 dB    -7.50 dB      2:47 03-80s TV Theme (feat. Robben Ford)
DR5       -0.21 dB    -6.82 dB      3:12 04-A Serious Blow
DR7       -0.01 dB    -8.72 dB      3:30 05-Chill Bill
DR6       -0.30 dB    -8.13 dB      3:28 06-Plant Bass Diet
DR6       -0.30 dB    -7.70 dB      2:28 07-C'mon Kid, Be A Hero
DR6       -0.30 dB    -6.97 dB      4:41 08-Take My Jet (feat. Robben Ford)
DR5       -0.30 dB    -7.01 dB      2:31 09-Yiddish Wedding Song
DR6       -0.30 dB    -7.51 dB      2:28 10-The Ego Trap
DR5       -0.30 dB    -7.03 dB      4:23 11-Humble Strut (feat. Robben Ford)
DR6       -0.30 dB    -7.69 dB      3:57 12-Mike, The Sneeze
DR7       -0.30 dB    -9.11 dB      2:28 13-Ladies Night
--------------------------------------------------------------------------------
Number of tracks:  13
Official DR value: DR6
Samplerate:        44100 Hz
Channels:          2
Bits per sample:   24
Bitrate:           1481 kbps
Codec:             FLAC
================================================================================
Приватный:
Нет (DHT включён)
Размер:
478.19 Мб (501,423,348 байт) » файлов: 15
Участники:
0 раздают, 0 качают (0 участников всего)
Внешние участники:
5 раздают, 2 качают (7 участников всего) [ Обновить ]
08:42
353
Нет комментариев. Ваш будет первым!