Поиск

2019 Ron Carter - Foursight - Stockholm, Vol. 1 {IN+OUT} [24-48]

2019 Ron Carter - Foursight - Stockholm, Vol. 1 {IN+OUT} [24-48]
Стили:
Издатель (лейбл):
Номер по каталогу:
IOR CD 77139-2

This album is available on our DC++ hub: dc.pro-jazz.com
Этот альбом доступен на нашем DC++ хабе: dc.pro-jazz.com

Треклист:

01. Cominando (7:39)
02. Joshua (8:51)
03. Little Waltz (7:04)
04. Seguaro (10:35)
05. Cominando, Reprise (2:00)
06. Nearly (13:10)
07. You and the Night and the Music (7:57)

Recorded at Fasching, Stockholm November 17, 2018 by Mats Landberg and Ulf Östing/Sveringes Radio Mixed January 2019 by Mats Landberg/Sveringes Radio
Mastered by Frank Schmidt and Oliver Noack at Temple Studios, Freiburg Germany

Состав:

Bass – Ron Carter
Drums – Payton Crossley
Piano – Renee Rosnes
Tenor Saxophone – Jimmy Greene
Liner Notes – Reinhard Köchl
Mastered By – Frank Schmidt, Oliver Noack
Producer [Producer For In+Out Records] – Frank Kleinschmidt
Producer [Producer For Sveriges Radio] – Pierre Martin (10)
Recorded By – Ulf Östling
Recorded By, Mixed By – Mats Landberg
Translated By [Liner Notes Translated By] – William Connors (2)

Доп. инфо:

Формат записи/Источник записи: [TR24][OF]
Наличие водяных знаков: Нет
Год издания: 2019
Жанр: Jazz
Издатель (лейбл): IN+OUT Records
Продолжительность: 00:57:16
Наличие сканов в содержимом раздачи: Только обложка альбома
Контейнер: FLAC (*.flac)
Тип рипа: tracks
Разрядность: 24/48
Формат: PCM
Количество каналов: 2.0
Источник (релизер): highresaudio.com

https://www.qobuz.com/gb-en/album/foursight-stockholm-vol-1-ron-carter-with-renee-rosnes-jimmy-greene-payton-crossley/inbi3asp4mwfb

https://www.discogs.com/Ron-Carter-With-Renee-Rosnes-Jimmy-Greene-Payton-Crossley-Foursight-Stockholm-Vol1/release/14497492

Лог проверки качества
foobar2000 1.4.8 / Dynamic Range Meter 1.1.1
log date: 2019-11-02 13:10:42

--------------------------------------------------------------------------------
Analyzed: Ron Carter / Foursight - Stockholm, Vol. 1
--------------------------------------------------------------------------------

DR         Peak         RMS     Duration Track
--------------------------------------------------------------------------------
DR11      -1.01 dB   -14.07 dB      7:39 01-Cominando
DR11      -1.04 dB   -13.89 dB      8:51 02-Joshua
DR14      -2.60 dB   -20.14 dB      7:04 03-Little Waltz
DR12      -1.03 dB   -15.36 dB     10:35 04-Seguaro
DR13      -1.01 dB   -16.65 dB      2:00 05-Cominando, Reprise
DR12      -1.05 dB   -16.03 dB     13:10 06-Nearly
DR12      -1.05 dB   -15.66 dB      7:57 07-You and the Night and the Music
--------------------------------------------------------------------------------

Number of tracks:  7
Official DR value: DR12
Samplerate:        48000 Hz
Channels:          2
Bits per sample:   24
Bitrate:           1668 kbps
Codec:             FLAC
================================================================================
17:14
871
Нет комментариев. Ваш будет первым!