Поиск

2019 Red Norvo - The Second Time Around {2xHD} [24-192]

2019 Red Norvo - The Second Time Around {2xHD} [24-192]
Стили:

01. Lover, Come Back to Me (05:11)
02. Tangerine (04:30)
03. Santa Monica Blues (a Long One for Santa Monica) (04:39)
04. Witchraft (05:29)
05. Rose Room (05:16)
06. When You're Smiling (04:51)
07. Exactly Like You (05:11)

Состав:
Лог проверки качества
foobar2000 1.4 / Dynamic Range Meter 1.1.1
log date: 2019-07-24 18:07:04

--------------------------------------------------------------------------------
Analyzed: The Red Norvo Combo feat. Dave McKenna, Milt Hinton, Mousey Alexander, Kenny Davern / Red Norvo Combo, The Second Time Around (Remastered)
--------------------------------------------------------------------------------

DR         Peak         RMS     Duration Track
--------------------------------------------------------------------------------
DR11      -3.92 dB   -19.08 dB      5:11 01-Lover, Come Back to Me
DR12      -5.90 dB   -20.74 dB      4:30 02-Tangerine
DR12      -4.18 dB   -21.08 dB      4:39 03-Santa Monica Blues (a Long One for Santa Monica)
DR12      -6.00 dB   -21.30 dB      5:29 04-Witchraft
DR12      -4.37 dB   -19.96 dB      5:16 05-Rose Room
DR12      -4.05 dB   -20.41 dB      4:51 06-When You're Smiling
DR12      -3.20 dB   -19.64 dB      5:11 07-Exactly Like You
--------------------------------------------------------------------------------

Number of tracks:  7
Official DR value: DR12
Samplerate:        192000 Hz
Channels:          2
Bits per sample:   24
Bitrate:           4788 kbps
Codec:             FLAC
================================================================================
13:35
824
Нет комментариев. Ваш будет первым!