Поиск

2019 Portico Quartet - Memory Streams {Gondwana} [24-48]

2019 Portico Quartet - Memory Streams {Gondwana} [24-48]
Дата издания диска:
4 октября 2019
Носитель:
WEB
Формат:
PCM
Тип рипа:
tracks
Контейнер:
FLAC (*.flac)
Количество каналов:
2.0
Разрядность/ЧД:
24/48
Битрейт аудио:
lossless
Время звучания:
00:44:50
Наличие сканов:
буклет pdf

1. With, Beside, Against  04:11
2. Signals in the Dusk  05:30
3. Gradient  04:34
4. Ways of Seeing  06:09
5. Memory Palace  01:32
6. Offset  04:31
7. Dissident Gardens  05:45
8. Double Helix  06:47
9. Immediately Visible 05:49

Лог проверки качества
foobar2000 1.6.8 / Dynamic Range Meter 1.1.1
log date: 2022-02-13 13:29:21
--------------------------------------------------------------------------------
Analyzed: Portico Quartet / Memory Streams
--------------------------------------------------------------------------------
DR         Peak         RMS     Duration Track
--------------------------------------------------------------------------------
DR7       -0.40 dB   -11.09 dB      4:11 01-With, Beside, Against
DR7       -0.40 dB   -10.24 dB      5:31 02-Signals in the Dusk
DR7       -0.40 dB   -10.78 dB      4:34 03-Gradient
DR8       -0.40 dB   -10.93 dB      6:09 04-Ways of Seeing
DR12      -3.30 dB   -20.65 dB      1:32 05-Memory Palace
DR6       -0.40 dB    -8.18 dB      4:31 06-Offset
DR8       -0.40 dB   -10.87 dB      5:46 07-Dissident Gardens
DR8       -0.40 dB   -10.80 dB      6:47 08-Double Helix
DR8       -0.40 dB   -11.56 dB      5:49 09-Immediately Visible
--------------------------------------------------------------------------------
Number of tracks:  9
Official DR value: DR8
Samplerate:        48000 Hz
Channels:          2
Bits per sample:   24
Bitrate:           1708 kbps
Codec:             FLAC
================================================================================
Скачивание доступно после регистрации!!
Приватный:
Да (DHT отключён)
Размер:
539.17 Мб (565,357,848 байт) » файлов: 12
Участники:
0 раздают, 0 качают (0 участников всего)
Внешние участники:
5 раздают, 1 качают (6 участников всего) [ Обновить ]
00:45
318
Нет комментариев. Ваш будет первым!