Вы используете незарегистрированную версию компонента "Вкладки"!

Поиск

2019 Nérija - Nérija (EP) {Domino} [CD]

2019 Nérija - Nérija (EP) {Domino} [CD]
Стили:
Битрейт аудио:
lossless
Доп. инфо:

Носитель: CD (EP)
Страна-производитель диска (релиза): UK
Год издания: 2019
Издатель (лейбл): Domino Records
Номер по каталогу: RUG995CD
Страна исполнителя (группы): UK

Аудиокодек: FLAC (*.flac)
Тип рипа: tracks+.cue
Продолжительность: 00:28:34

Источник: BolshoeR
Наличие сканов в содержимом раздачи: да

Лог создания рипа
Exact Audio Copy V1.3 from 2. September 2016

EAC extraction logfile from 6. May 2020, 19:23

Nérija / Nérija EP

Used drive  : PIONEER DVD-RW  DVR-218L   Adapter: 1  ID: 0

Read mode               : Secure
Utilize accurate stream : Yes
Defeat audio cache      : Yes
Make use of C2 pointers : No

Read offset correction                      : 6
Overread into Lead-In and Lead-Out          : No
Fill up missing offset samples with silence : Yes
Delete leading and trailing silent blocks   : No
Null samples used in CRC calculations       : Yes
Used interface                              : Native Win32 interface for Win NT & 2000
Gap handling                                : Appended to previous track

Used output format              : User Defined Encoder
Selected bitrate                : 896 kBit/s
Quality                         : High
Add ID3 tag                     : No
Command line compressor         : C:\Program Files (x86)\Exact Audio Copy\Flac\flac.exe
Additional command line options : -V -7 -T "Genre=%genre%" -T "Artist=%artist%" -T "Title=%title%" -T "Album=%albumtitle%" -T "Date=%year%" -T "Tracknumber=%tracknr%" -T "Comment=%comment%" %source%

TOC of the extracted CD

     Track |   Start  |  Length  | Start sector | End sector
    ---------------------------------------------------------
        1  |  0:00.00 |  5:27.44 |         0    |    24568
        2  |  5:27.44 |  6:37.58 |     24569    |    54401
        3  | 12:05.27 |  5:44.21 |     54402    |    80222
        4  | 17:49.48 |  4:25.03 |     80223    |   100100
        5  | 22:14.51 |  6:19.53 |    100101    |   128578

Track  1

     Filename D:\_МУЗЫКА\Nérija - EP (2019)\01 Pinkham V.wav

     Pre-gap length  0:00:02.00

     Peak level 99.4 %
     Extraction speed 1.1 X
     Track quality 100.0 %
     Test CRC 93E97667
     Copy CRC 93E97667
     Accurately ripped (confidence 3)  [1D710B15]  (AR v2)
     Copy OK

Track  2

     Filename D:\_МУЗЫКА\Nérija - EP (2019)\02 Redamancy.wav

     Pre-gap length  0:00:02.25

     Peak level 100.0 %
     Extraction speed 1.3 X
     Track quality 100.0 %
     Test CRC 0ED0C912
     Copy CRC 0ED0C912
     Accurately ripped (confidence 3)  [88D1071E]  (AR v2)
     Copy OK

Track  3

     Filename D:\_МУЗЫКА\Nérija - EP (2019)\03 The Fisherman.wav

     Peak level 98.8 %
     Extraction speed 1.3 X
     Track quality 99.9 %
     Test CRC 632E2F30
     Copy CRC 632E2F30
     Accurately ripped (confidence 3)  [16CD7E72]  (AR v2)
     Copy OK

Track  4

     Filename D:\_МУЗЫКА\Nérija - EP (2019)\04 For You.wav

     Pre-gap length  0:00:02.38

     Peak level 98.3 %
     Extraction speed 1.5 X
     Track quality 100.0 %
     Test CRC 3685F419
     Copy CRC 3685F419
     Accurately ripped (confidence 3)  [F31329E8]  (AR v2)
     Copy OK

Track  5

     Filename D:\_МУЗЫКА\Nérija - EP (2019)\05 Valleys.wav

     Pre-gap length  0:00:01.82

     Peak level 98.0 %
     Extraction speed 1.7 X
     Track quality 100.0 %
     Test CRC CBA0F3AE
     Copy CRC CBA0F3AE
     Accurately ripped (confidence 3)  [C2F0A40C]  (AR v2)
     Copy OK

All tracks accurately ripped

No errors occurred

End of status report

---- CUETools DB Plugin V2.1.6

[CTDB TOCID: gXbMVZ2gvp8O2XEPhTHo4EzKV5c-] found
Submit result: gXbMVZ2gvp8O2XEPhTHo4EzKV5c- has been confirmed
Track | CTDB Status
  1   | (5/5) Accurately ripped
  2   | (5/5) Accurately ripped
  3   | (5/5) Accurately ripped
  4   | (5/5) Accurately ripped
  5   | (5/5) Accurately ripped

==== Log checksum 1142FA8251749BA28BEB8B6054DEBBBDA793D3D3CC6DE25BB6DE2F7547C023F2 ====
Содержание индексной карты (.CUE)
REM GENRE "Jazz Fusion"
REM DATE 2019
REM DISCID 3606B205
REM COMMENT "ExactAudioCopy v1.3"
PERFORMER "Nerija"
TITLE "Nerija EP"
REM COMPOSER ""
FILE "01 Pinkham V.wav" WAVE
  TRACK 01 AUDIO
    TITLE "Pinkham V"
    PERFORMER "Nerija"
    REM COMPOSER ""
    INDEX 01 00:00:00
  TRACK 02 AUDIO
    TITLE "Redamancy"
    PERFORMER "Nerija"
    REM COMPOSER ""
    INDEX 00 05:25:25
FILE "02 Redamancy.wav" WAVE
    INDEX 01 00:00:00
FILE "03 The Fisherman.wav" WAVE
  TRACK 03 AUDIO
    TITLE "The Fisherman"
    PERFORMER "Nerija"
    REM COMPOSER ""
    INDEX 01 00:00:00
  TRACK 04 AUDIO
    TITLE "For You"
    PERFORMER "Nerija"
    REM COMPOSER ""
    INDEX 00 05:41:67
FILE "04 For You.wav" WAVE
    INDEX 01 00:00:00
  TRACK 05 AUDIO
    TITLE "Valleys"
    PERFORMER "Nerija"
    REM COMPOSER ""
    INDEX 00 04:23:16
FILE "05 Valleys.wav" WAVE
    INDEX 01 00:00:00
Any questions - support@pro-jazz.com. Есть вопросы - support@pro-jazz.com
16:48
193
Нет комментариев. Ваш будет первым!