Вы используете незарегистрированную версию компонента "Вкладки"!

Поиск

2019 Musina Ebobissé Quartet - Timeprints (Vol. 79) {Double Moon DMCHR71361} [WEB]

2019 Musina Ebobissé Quartet - Timeprints (Vol. 79) {Double Moon DMCHR71361} [WEB]
Стили:
Дата записи диска:
5-6 июля 2018
Место записи:
Zentrifuge Studio
Издатель (лейбл):
Номер по каталогу:
DMCHR71361
Носитель:
WEB
Тип рипа:
tracks+.cue
Аудиокодек:
FLAC (*.flac)
Битрейт аудио:
lossless
Время звучания:
00:56:00
Наличие сканов:
web
Страна-производитель диска (релиза):
Germany
Релизёр (источник):
M0p94ok
Лог проверки качества
foobar2000 1.5.5 / Dynamic Range Meter 1.1.1
log date: 2020-10-19 00:28:34

--------------------------------------------------------------------------------
Analyzed: Musina Ebobissé Quartet / Timeprints (Jazz Thing Next Generation Vol. 79)
--------------------------------------------------------------------------------

DR         Peak         RMS     Duration Track
--------------------------------------------------------------------------------
DR10      -0.30 dB   -12.05 dB      6:04 01-Silhouette
DR9       -0.30 dB   -13.26 dB      6:36 02-Novlangue
DR11      -0.84 dB   -15.26 dB      4:34 03-Rêveries
DR10      -0.30 dB   -12.72 dB      7:29 04-Macula Lutea
DR11      -0.30 dB   -14.17 dB      3:24 05-Hairsplitting
DR11      -0.30 dB   -13.69 dB      6:00 06-Dusk Seekers
DR8       -0.30 dB   -11.39 dB      7:22 07-Astroturfing
DR10      -0.30 dB   -14.47 dB      6:40 08-Fall
DR11      -0.30 dB   -15.22 dB      3:52 09-Loxodonta
DR15      -0.30 dB   -18.56 dB      4:03 10-The Eagle Song
--------------------------------------------------------------------------------

Number of tracks:  10
Official DR value: DR11

Samplerate:        44100 Hz
Channels:          2
Bits per sample:   16
Bitrate:           654 kbps
Codec:             FLAC
================================================================================
Any questions - support@pro-jazz.com. Есть вопросы - support@pro-jazz.com
12:37
182
Нет комментариев. Ваш будет первым!