Вы используете незарегистрированную версию компонента "Вкладки"!

Поиск

2019 Katherine Penfold - Sweetest Thing {Justin Time} [24-48]

2019 Katherine Penfold - Sweetest Thing {Justin Time} [24-48]
Стили:
Издатель (лейбл):
Доп. инфо:

Формат записи/Источник записи: [TR24][OF]
Наличие водяных знаков: Нет
Год издания/переиздания диска: 2019
Продолжительность: 00:40:19
Наличие сканов в содержимом раздачи: Только обложка альбома

Контейнер: FLAC (*.flac)
Тип рипа: tracks
Разрядность: 24/48
Формат: WAV (flac.ape.wv)
Количество каналов: 2.0

Источник (релизер): redacted <- qobuz

Лог проверки качества
foobar2000 1.4.8 / Dynamic Range Meter 1.1.1
log date: 2019-11-04 23:25:48

--------------------------------------------------------------------------------
Analyzed: Katherine Penfold / Sweetest Thing
--------------------------------------------------------------------------------

DR         Peak         RMS     Duration Track
--------------------------------------------------------------------------------
DR7       -0.40 dB    -9.32 dB      4:39 01-Unapologetic
DR7       -0.50 dB    -9.68 dB      3:17 02-Feel Like Makin' Love
DR8       -0.40 dB   -10.56 dB      4:14 03-Far Away
DR8       -0.50 dB   -10.15 dB      3:30 04-Better
DR7       -0.50 dB   -10.05 dB      4:24 05-We Gotta Choose
DR7       -0.40 dB    -9.99 dB      4:34 06-High
DR6       -0.40 dB    -9.72 dB      4:48 07-Sweetest Thing
DR7       -0.50 dB    -9.45 dB      3:36 08-Movin' On
DR7       -0.50 dB    -8.18 dB      3:20 09-Tell the World
DR7       -0.50 dB    -9.67 dB      3:57 10-You Know the Way I Feel
--------------------------------------------------------------------------------

Number of tracks:  10
Official DR value: DR7

Samplerate:        48000 Hz
Channels:          2
Bits per sample:   24
Bitrate:           1664 kbps
Codec:             FLAC
================================================================================
Any questions - support@pro-jazz.com. Есть вопросы - support@pro-jazz.com
14:14
368
Нет комментариев. Ваш будет первым!