Поиск

2019 Jazz Funk Soul - Life And Times {Time Blues} [CD]

2019 Jazz Funk Soul - Life And Times {Time Blues} [CD]
Стили:
Носитель:
CD
Тип рипа:
image
Аудиокодек:
FLAC (*.flac)
Битрейт аудио:
lossless
Время звучания:
00:47:28
Наличие сканов:
буклет pdf
Релизёр (источник):
BluesHouse aka RedHotBlues
Треклист:

01. Exotic [0:04:43.21]
02. Blacksmith [0:04:47.15]
03. Walkin' With You [0:04:40.72]
04. Windfall [0:04:30.35]
05. Ready Freddie [0:04:20.14]
06. Fifth Ward [0:04:49.49]
07. Sunset Rock [0:05:09.66]
08. Room w Vu [0:04:48.35]
09. Where You're At [0:04:40.44]
10. Cadiwampus [0:04:55.60]

Лог создания рипа
Exact Audio Copy V1.3 from 2. September 2016

Отчёт EAC об извлечении, выполненном 8. марта 2019, 18:40

Jazz Funk Soul / Life And Times

Дисковод: ASUS    DRW-24B3ST   Adapter: 1  ID: 1

Режим чтения                 : Достоверность
Использование точного потока : Да
Отключение кэша аудио        : Да
Использование указателей C2  : Нет

Коррекция смещения при чтении                     : 6
Способность читать области Lead-in и Lead-out     : Нет
Заполнение пропущенных сэмплов тишиной            : Да
Удаление блоков с тишиной в начале и конце        : Нет
При вычислениях CRC использовались нулевые сэмплы : Да
Интерфейс                                         : Встроенный Win32-интерфейс для Win NT/2000

Выходной формат          : Пользовательский кодировщик
Выбранный битрейт        : 768 kBit/s
Качество                 : Высокий
Добавление ID3-тега      : Нет
Утилита сжатия           : C:\Program Files (x86)\Exact Audio Copy\FLAC\FLAC.EXE
Дополнительные параметры : -6 -V -T "ARTIST=%artist%" -T "TITLE=%title%" -T "ALBUM=%albumtitle%" -T "DATE=%year%" -T "TRACKNUMBER=%tracknr%" -T "GENRE=%genre%" -T "COMMENT=%comment%" -T "BAND=%albuminterpret%" -T "ALBUMARTIST=%albuminterpret%" -T "COMPOSER=%composer%" %haslyrics%--tag-from-file=LYRICS="%lyricsfile%"%haslyrics% -T "DISCNUMBER=%cdnumber%" -T "TOTALDISCS=%totalcds%" -T "TOTALTRACKS=%numtracks%" %hascover%--picture="%coverfile%"%hascover% %source% -o %dest%

TOC извлечённого CD

     Трек |   Старт  | Длительность | Начальный сектор | Конечный сектор
    ---------------------------------------------------------------------
       1  |  0:00.00 |    4:43.21   |           0      |      21245
       2  |  4:43.21 |    4:47.15   |       21246      |      42785
       3  |  9:30.36 |    4:40.72   |       42786      |      63857
       4  | 14:11.33 |    4:30.35   |       63858      |      84142
       5  | 18:41.68 |    4:20.14   |       84143      |     103656
       6  | 23:02.07 |    4:49.49   |      103657      |     125380
       7  | 27:51.56 |    5:09.66   |      125381      |     148621
       8  | 33:01.47 |    4:48.35   |      148622      |     170256
       9  | 37:50.07 |    4:40.44   |      170257      |     191300
      10  | 42:30.51 |    4:55.60   |      191301      |     213485

Характеристики диапазона извлечения и сообщения об ошибках

Выбранный диапазон

     Имя файла C:\Users\PENTIUM\Desktop\Jazz Funk Soul - Life And Times  2019  47'28''\Jazz Funk Soul - Life And Times.wav

     Пиковый уровень 97.7 %
     Скорость извлечения 7.5 X
     Качество диапазона 100.0 %
     CRC теста 4390096F
     CRC копии 4390096F
     Копирование... OK

Ошибок не произошло

Конец отчёта

---- CUETools DB Plugin V2.1.6

[CTDB TOCID: cmugNoDjHBN4unglRzgHgUerxcY-] found
Submit result: cmugNoDjHBN4unglRzgHgUerxcY- has been submitted
Track | CTDB Status
  1   | (0/4) No match
  2   | (0/4) No match
  3   | (0/4) No match
  4   | (0/4) No match
  5   | (0/4) No match
  6   | (0/4) No match
  7   | (0/4) No match
  8   | (0/4) No match
  9   | (0/4) No match
 10   | (0/4) No match

==== Контрольная сумма отчёта 228216D8E0C5CA75A6275713E9C23C8113C6F84A254D3A4E73F2A7684C6F4C4F ====
Содержание индексной карты (.CUE)
REM GENRE Jazz+Funk
REM DATE 2019
REM DISCID 870B1E0A
REM COMMENT "ExactAudioCopy v1.3"
PERFORMER "Jazz Funk Soul"
TITLE "Life And Times"
REM COMPOSER ""
FILE "Jazz Funk Soul - Life And Times.flac" WAVE
  TRACK 01 AUDIO
    TITLE "Exotic"
    PERFORMER "Jazz Funk Soul"
    REM COMPOSER ""
    FLAGS DCP
    INDEX 01 00:00:00
  TRACK 02 AUDIO
    TITLE "Blacksmith"
    PERFORMER "Jazz Funk Soul"
    REM COMPOSER ""
    FLAGS DCP
    INDEX 01 04:43:21
  TRACK 03 AUDIO
    TITLE "Walkin' With You"
    PERFORMER "Jazz Funk Soul"
    REM COMPOSER ""
    FLAGS DCP
    INDEX 01 09:30:36
  TRACK 04 AUDIO
    TITLE "Windfall"
    PERFORMER "Jazz Funk Soul"
    REM COMPOSER ""
    FLAGS DCP
    INDEX 01 14:11:33
  TRACK 05 AUDIO
    TITLE "Ready Freddie"
    PERFORMER "Jazz Funk Soul"
    REM COMPOSER ""
    FLAGS DCP
    INDEX 01 18:41:68
  TRACK 06 AUDIO
    TITLE "Fifth Ward"
    PERFORMER "Jazz Funk Soul"
    REM COMPOSER ""
    FLAGS DCP
    INDEX 01 23:02:07
  TRACK 07 AUDIO
    TITLE "Sunset Rock"
    PERFORMER "Jazz Funk Soul"
    REM COMPOSER ""
    FLAGS DCP
    INDEX 01 27:51:56
  TRACK 08 AUDIO
    TITLE "Room w Vu"
    PERFORMER "Jazz Funk Soul"
    REM COMPOSER ""
    FLAGS DCP
    INDEX 01 33:01:47
  TRACK 09 AUDIO
    TITLE "Where You're At"
    PERFORMER "Jazz Funk Soul"
    REM COMPOSER ""
    FLAGS DCP
    INDEX 01 37:50:07
  TRACK 10 AUDIO
    TITLE "Cadiwampus"
    PERFORMER "Jazz Funk Soul"
    REM COMPOSER ""
    FLAGS DCP
    INDEX 01 42:30:51
Лог проверки качества
-----------------------

DON'T MODIFY THIS FILE

-----------------------

PERFORMER: auCDtect Task Manager, ver. 1.6.0 RC1 build 1.6.0.1
Copyright (c) 2008-2010 y-soft. All rights reserved
http://y-soft.org

ANALYZER: auCDtect: CD records authenticity detector, version 0.8.2
Copyright (c) 2004 Oleg Berngardt. All rights reserved.
Copyright (c) 2004 Alexander Djourik. All rights reserved.

FILE: Jazz Funk Soul - Life And Times.flac
  Size: 335886520 Hash: AE722247C1C503137D82C4D24D149F91 Accuracy: -m0
  Conclusion: CDDA 100%
  Signature: 1C4686D7959D557E5E6FC5A1F42C42ADFC0C0E61
12:18
778
00:26
scusa ho fatto un errore