Поиск

2019 Hugo Corbin - Inner Roads {Believe} [WEB]

2019 Hugo Corbin - Inner Roads {Believe} [WEB]
Дата издания диска:
25 января 2019
Битрейт аудио:
lossless
Треклист:

1. Arquipelago. 5:32
2. Melancholia's Path. 6:29
3. Train To Busan. 6:18
4. The Runner. 3:33
5. Northern Sky. 6:24
6. A La Nuit Tombée. 6:46
7. Fargo. 7:03
8. Sea At Dawn. 4:32

 
DRM.log
foobar2000 1.3.8 / Dynamic Range Meter 1.1.1
log date: 2019-01-28 15:00:58
--------------------------------------------------------------------------------
Analyzed: Hugo Corbin / Inner Roads
--------------------------------------------------------------------------------
DR         Peak         RMS     Duration Track
--------------------------------------------------------------------------------
DR10      -0.51 dB   -12.41 dB      5:32 01-Arquipelago
DR8       -0.51 dB   -10.92 dB      6:30 02-Melancholia's Path
DR8       -0.51 dB   -11.57 dB      6:18 03-Train to Busan
DR9       -0.52 dB   -13.35 dB      3:33 04-The Runner
DR9       -0.51 dB   -11.97 dB      6:25 05-Northern Sky
DR8       -0.51 dB   -11.42 dB      6:47 06-À la nuit tombée
DR11      -0.51 dB   -14.80 dB      7:04 07-Fargo
DR10      -0.51 dB   -13.66 dB      4:33 08-Sea at Dawn
--------------------------------------------------------------------------------
Number of tracks:  8
Official DR value: DR9
Samplerate:        44100 Hz
Channels:          2
Bits per sample:   16
Bitrate:           806 kbps
Codec:             FLAC
================================================================================
Лог проверки качества
-----------------------

DON'T MODIFY THIS FILE

-----------------------

PERFORMER: auCDtect Task Manager, ver. 1.6.0 RC1 build 1.6.0.1
Copyright (c) 2008-2010 y-soft. All rights reserved
http://y-soft.org

ANALYZER: auCDtect: CD records authenticity detector, version 0.8.2
Copyright (c) 2004 Oleg Berngardt. All rights reserved.
Copyright (c) 2004 Alexander Djourik. All rights reserved.

FILE: 01. Arquipelago.flac
  Size: 35697537 Hash: D48C6C8A1E7EED5F71BFAD918B481D41 Accuracy: -m0
  Conclusion: CDDA 58%
  Signature: 3CC54DA0DE3025C27DA2BFA772B5BD04E090282B
FILE: 02. Melancholia's Path.flac
  Size: 42831257 Hash: 0614946870D50387088F2E8975D7D709 Accuracy: -m0
  Conclusion: CDDA 85%
  Signature: FE4BB4C0644F47A948F2A1C56332C5020A6D8C11
FILE: 03. Train to Busan.flac
  Size: 38382242 Hash: 3B0D0CAF2BEC96E0D64C74097D16AD40 Accuracy: -m0
  Conclusion: MPEG 80%
  Signature: 91F34DF4B17C72C142001D3700DC269245AE9108
FILE: 04. The Runner.flac
  Size: 22138307 Hash: 472C55296E376DF44E3ED05D33E57C85 Accuracy: -m0
  Conclusion: CDDA 54%
  Signature: 586DF1272981579B98C099598CDC681EE831F165
FILE: 05. Northern Sky.flac
  Size: 43296228 Hash: 3C6C1F152305E65463C0206E073C694F Accuracy: -m0
  Conclusion: CDDA 100%
  Signature: B12348961C2C18849A47CF90D4090A2A7C44D4D2
FILE: 06 À la nuit tombée.flac
  Size: 41021728 Hash: 93E9891158E64FD3DE76BB57ABD5B1AA Accuracy: -m0
  Conclusion: CDDA 43%
  Signature: 67D980DCC3029540DD12B289411BC733255295FD
FILE: 07. Fargo.flac
  Size: 37971282 Hash: 7824E1CF145F9AE7FCA92CC1BBE13DDF Accuracy: -m0
  Conclusion: MPEG 93%
  Signature: 6B63F0A08282B1EEE673B0219D8A069ED9CB6DF1
FILE: 08. Sea at Dawn.flac
  Size: 27523914 Hash: 802BE7FD783B47C96049A3BA09340FCC Accuracy: -m0
  Conclusion: CDDA 58%
  Signature: 04F3C32E12EF97FA991B33626304F823D8DB728F
Скриншот спектра частот
2019 Hugo Corbin - Inner Roads {Believe} [WEB] 02019 Hugo Corbin - Inner Roads {Believe} [WEB] 1
Приватный:
Нет (DHT включён)
Размер:
275.74 Мб (289,139,043 байт) » файлов: 13
Участники:
11 раздают, 0 качают (11 участников всего)
Внешние участники:
2 раздают, 1 качают (3 участников всего) [ Обновить ]
Нет сидеров - пишите личное сообщение M0p94ok. Не нравятся торренты? Участники группы Pro-jazz Club могут заказать прямую ссылку на скачивание из облака.
No seeders - write a personal message to M0p94ok. Don't like torrents? Members of Pro-jazz Club group can order a direct download link from the cloud.
15:27
49
Нет комментариев. Ваш будет первым!