Поиск

2019 Hendrik Meurkens - Cobb's Pocket {In+Out} [24-88,2]

2019 Hendrik Meurkens - Cobb's Pocket {In+Out} [24-88,2]
Стили:
Дата записи диска:
1 - 2 июля 2018
Место записи:
CB's Juke Joint, New York City
Дата издания диска:
13 сентября 2019
Издатель (лейбл):
Номер по каталогу:
IOR CD 77141-2
Носитель:
WEB
Формат:
PCM
Тип рипа:
tracks
Контейнер:
FLAC (*.flac)
Количество каналов:
2.0
Разрядность/ЧД:
24/88,2
Битрейт аудио:
lossless
Время звучания:
00:50:14
Наличие сканов:
только обложка

Треклист:

01 - Driftin' 06:06
02 - Cobb's Pocket 04:47
03 - Frame for the Blues 08:34
04 - Slidin' 06:29
05 - Slow Hot Wind 05:40
06 - Unit Seven 05:35
07 - Polka Dots and Moonbeams 06:25
08 - A Slow One 06:38

Состав:
  • Peter Bernstein     Guitar
  • Jimmy Cobb     Drums
  • Dave Darlington     Mastering, Mixing
  • Frank Kleinschmidt     Producer
  • Mike LeDonne     Organ
  • Hendrik Meurkens     Composer, Harmonica, Producer
  • Colin Mohnacs     Assistant Engineer
  • Derek Nievergelt     Engineer
  • Scott Yanow     Liner Notes
Лог проверки качества
foobar2000 1.4.3 / Dynamic Range Meter 1.1.1
log date: 2021-10-27 20:56:23
--------------------------------------------------------------------------------
Analyzed: Hendrik Meurkens with Mike LeDonne, Peter Bernstein & Jimmy Cobb / Cobb's Pocket
--------------------------------------------------------------------------------
DR         Peak         RMS     Duration Track
--------------------------------------------------------------------------------
DR9       -0.30 dB   -12.06 dB      6:07 01-Driftin'
DR8       -0.30 dB   -10.61 dB      4:48 02-Cobb's Pocket
DR11      -0.30 dB   -13.94 dB      8:34 03-Frame for the Blues
DR10      -0.30 dB   -12.19 dB      6:29 04-Slidin'
DR8       -0.30 dB   -10.59 dB      5:41 05-Slow Hot Wind
DR8       -0.30 dB   -10.91 dB      5:35 06-Unit Seven
DR9       -0.30 dB   -13.20 dB      6:26 07-Polka Dots and Moonbeams
DR9       -0.30 dB   -11.47 dB      6:39 08-A Slow One
--------------------------------------------------------------------------------
Number of tracks:  8
Official DR value: DR9
Samplerate:        88200 Hz
Channels:          2
Bits per sample:   24
Bitrate:           2880 kbps
Codec:             FLAC
================================================================================
23:02
425
Нет комментариев. Ваш будет первым!