Поиск

2019 Flavio Boltro Quartet - I Remember Clifford {Venus VHGD-331} [DSD64 ISO]

2019 Flavio Boltro Quartet - I Remember Clifford {Venus VHGD-331} [DSD64 ISO]
Дата записи диска:
6 апреля - 7 апреля 2018
Место записи:
Riverside Studios, Torino, Italy
Дата издания диска:
16 января 2019
Издатель (лейбл):
Номер по каталогу:
VHGD-331
Носитель:
WEB
Формат:
PCM
Тип рипа:
tracks
Контейнер:
FLAC (*.flac)
Количество каналов:
2.0
Разрядность/ЧД:
64 (2,8 MHz/1 Bit)
Битрейт аудио:
lossless
Время звучания:
00:59:03
Наличие сканов:
только обложка

Треклист:

1. Whisper Not  8:02
2. Ceora  05:52
3. I Can't Get Started  8:33
4. Mamacita  4:55
5. Thee Is No Greater Love  7:00
6. I Remember Clifford  5:51
7. Nutty  05:28
8. Con Alma  07:39
9. Wasabi Blues  05:20

Состав:
  • Flavio Boltro — trumpet
  • Massimo Farao’ — piano
  • Nicola Barbon — bass
  • Ruben Bellavia — drums
Лог проверки качества
foobar2000 1.6.4 / Dynamic Range Meter 1.1.1
log date: 2021-07-30 17:59:29
--------------------------------------------------------------------------------
Analyzed: FLAVIO BOLTRO QUARTET / I Remember Clifford
--------------------------------------------------------------------------------
DR         Peak         RMS     Duration Track
--------------------------------------------------------------------------------
DR6       -5.07 dB   -13.16 dB      8:05 01-Whisper Not
DR7       -5.08 dB   -14.42 dB      5:54 02-Ceora
DR9       -5.08 dB   -16.44 dB      8:36 03-I Can't Get Started
DR6       -5.06 dB   -12.57 dB      4:58 04-Mamacita
DR7       -5.24 dB   -13.33 dB      7:03 05-There Is No Greater Love
DR8       -5.34 dB   -15.70 dB      5:54 06-I Remember Clifford
DR8       -5.44 dB   -14.90 dB      5:31 07-Nutty
DR6       -5.56 dB   -12.95 dB      7:42 08-Con Alma
DR7       -5.20 dB   -13.85 dB      5:21 09-Wasabi Blues
--------------------------------------------------------------------------------
Number of tracks:  9
Official DR value: DR7
Samplerate:        2822400 Hz / PCM Samplerate: 88200 Hz
Channels:          2
Bits per sample:   1
Bitrate:           5645 kbps
Codec:             DSD64
================================================================================
По всем вопросам пишите личное сообщение пользователю M0p94ok.
12:37
237
Нет комментариев. Ваш будет первым!