Вы используете незарегистрированную версию компонента "Вкладки"!

Поиск

2019 Erlend Apneseth Trio with Frode Haltli - Salika, Molika {Hubro} [24-48]

2019 Erlend Apneseth Trio with Frode Haltli - Salika, Molika {Hubro} [24-48]
Дата записи диска:
сентябрь 2018 - январь 2019
Место записи:
Bergen Kjøtt, Bergen; Riksscenen, Oslo; Duper Studio, Bergen
Дата издания диска:
6 июня 2019
Доп. инфо:

• Формат записи | Источник записи: [TR24][OF]
• Наличие водяных знаков: Нет
• Год издания релиза: 2019
• Лейбл: Hubro
• Продолжительность: 00:32:57
• Источник: internet
• WEB релиз: ссылка
• Контейнер: FLAC (*.flac)
• Тип рипа: tracks
• Разрядность: 24/48
• Формат: PCM
• Количество каналов: 2.0
• Наличие сканов: front

Лог проверки качества
foobar2000 1.3.9 / Замер динамического диапазона (DR) 1.1.1
Дата отчёта:  2020-02-05 08:48:44

--------------------------------------------------------------------------------
Анализ:   Erlend Apneseth Trio / Salika, Molika
--------------------------------------------------------------------------------

DR         Пики         RMS           Продолжительность трека
--------------------------------------------------------------------------------
DR12      -1.02 дБ   -20.07 дБ      4:29 01-Mor Song
DR9       -1.00 дБ   -15.99 дБ      3:47 02-Salika, Molika
DR8       -1.00 дБ   -12.89 дБ      4:52 03-Cirkus
DR11      -1.00 дБ   -16.76 дБ      6:35 04-Pyramiden
DR5       -0.98 дБ    -9.62 дБ      3:50 05-Takle
DR9       -0.91 дБ   -15.98 дБ      4:39 06-Solreven
DR11      -1.00 дБ   -16.67 дБ      4:45 07-Kirkegangar
--------------------------------------------------------------------------------

Количество треков: 7
Реальные значения DR: DR9

Частота:   48000 Гц
Каналов:   2
Разрядность:   24
Битрейт:   1514 кбит/с
Кодек:   FLAC
================================================================================
Any questions - support@pro-jazz.com. Есть вопросы - support@pro-jazz.com
20:19
295
Нет комментариев. Ваш будет первым!