Вы используете незарегистрированную версию компонента "Вкладки"!

Поиск

2019 Emma Frank - Come Back {Justin Time} [24-96]

2019 Emma Frank - Come Back {Justin Time} [24-96]
Стили:
Доп. инфо:

Формат записи/Источник записи: [TR24][OF]
Наличие водяных знаков: Нет
Год издания/переиздания диска: 2019
Жанр: Vocal Jazz, Folk
Издатель (лейбл): Justin Time
Продолжительность: 00:31:33
Наличие сканов в содержимом раздачи: Только обложка альбома

Контейнер: FLAC (*.flac)
Тип рипа: tracks
Разрядность: 24/96
Формат: WAV (flac.ape.wv)
Количество каналов: 2.0

Источник (релизер): redacted <-- qobuz

Лог проверки качества
foobar2000 1.4.8 / Dynamic Range Meter 1.1.1
log date: 2019-12-02 21:50:14

--------------------------------------------------------------------------------
Analyzed: Emma Frank / Come Back
--------------------------------------------------------------------------------

DR         Peak         RMS     Duration Track
--------------------------------------------------------------------------------
DR8       -0.38 dB   -10.50 dB      4:29 01-I Thought
DR11      -0.38 dB   -14.49 dB      2:33 02-Either Way
DR8       -0.37 dB   -11.18 dB      4:26 03-Two Hours
DR10      -0.38 dB   -13.21 dB      2:40 04-Sometimes
DR8       -0.37 dB   -11.01 dB      5:16 05-Promises
DR11      -0.38 dB   -14.91 dB      1:23 06-Dream Team
DR8       -0.37 dB   -10.08 dB      3:51 07-See You
DR9       -0.38 dB   -11.41 dB      3:16 08-Come Back
DR10      -0.38 dB   -12.78 dB      3:39 09-Before You Go Away
--------------------------------------------------------------------------------

Number of tracks:  9
Official DR value: DR9

Samplerate:        96000 Hz
Channels:          2
Bits per sample:   24
Bitrate:           2574 kbps
Codec:             FLAC
================================================================================
Any questions - support@pro-jazz.com. Есть вопросы - support@pro-jazz.com
13:50
309
Нет комментариев. Ваш будет первым!