Поиск

2019 Eliane Elias - Love Stories {Concord} [24-96]

2019 Eliane Elias - Love Stories {Concord} [24-96]
Издатель (лейбл):

This album is available on our DC++ hub: dc.pro-jazz.com
Этот альбом доступен на нашем DC++ хабе: dc.pro-jazz.com

Треклист:

1. A Man And A Woman  03:16
2. Baby Come To Me  05:02
3. Bonita  05:52
4. Angel Eyes  05:25
5. Come Fly With Me  05:52
6. The Simplest Things  03:59
7. Silence  04:04
8. Little Boat  05:48
9. The View  04:17

Состав:
  • Eliane Elias, vocals, piano
  • Marc Johnson, bass
  • Marcus Teixeira, guitar
  • Daniel Santiago, guitar
  • Robert Menescal, guitar
  • Edu Rieeiro, drums
  • Rafael Barate, drums
  • Paulo Braga, drums
  • Celso de Almeida, drums
  • Mark Kibble, background vocals
Лог проверки качества
foobar2000 1.4 / Dynamic Range Meter 1.1.1
log date: 2019-08-30 05:19:02

--------------------------------------------------------------------------------
Analyzed: Eliane Elias / Love Stories
--------------------------------------------------------------------------------

DR         Peak         RMS     Duration Track
--------------------------------------------------------------------------------
DR9       -0.04 dB    -9.87 dB      3:16 01-A Man And A Woman
DR7       -0.04 dB    -9.13 dB      5:03 02-Baby Come To Me
DR8       -0.04 dB    -9.92 dB      5:53 03-Bonita
DR8       -0.04 dB   -10.19 dB      5:25 04-Angel Eyes
DR7       -0.04 dB    -8.80 dB      5:52 05-Come Fly With Me
DR9        0.00 dB   -11.20 dB      4:00 06-The Simplest Things
DR10       0.00 dB   -12.58 dB      4:04 07-Silence
DR8        0.00 dB   -10.13 dB      5:48 08-Little Boat
DR9       -0.04 dB   -10.71 dB      4:18 09-The View
--------------------------------------------------------------------------------

Number of tracks:  9
Official DR value: DR8
Samplerate:        96000 Hz
Channels:          2
Bits per sample:   24
Bitrate:           2874 kbps
Codec:             FLAC
================================================================================
22:52
1054
Нет комментариев. Ваш будет первым!