Поиск

2019 Dario Carnovale, Alfred Kramer, Lorenzo Conte - I Remember You {Fonè Jazz} [DST64]

2019 Dario Carnovale, Alfred Kramer, Lorenzo Conte - I Remember You {Fonè Jazz} [DST64]
Стили:
Издатель (лейбл):
Треклист:

1. I Remember You
2. Madrigale
3. I'll Close My Eyes
4. Alone
5. What Is This Thing Called Love
6. Emersion
7. CKC

Conceived, recorded and produced by Giulio Cesare Ricci
Recorded at Il Castello - Palazzo di Scoto di Semifonte
Certaldo Alto (Fi) October 2016
Recording assistant: Paola Liberato
Valve microphones: Neumann U47, U48, M49
Mike pre-amplifiers, cables (line, digital, microphone, supply): Signoricci
Recorded in stereo DSD on the Pyramix Recorder using dCS A/D and D/A converters
Photos by: Michela Del Forno
A&R and Il Castello property manager: Alfred Kramer
La masterizzazione per il SuperAudioCD è stata effettuata da Giulio Cesare Ricci utilizzando
il sistema Signoricci interamente analogico e valvolare.
No editing. All the tracks on this record are heard as they were performed.

Состав:
  • Dario Carnovale — Piano
  • Alfred Kramer — Drums
  • Lorenzo Conte — Contrabbasso
Доп. инфо:

Формат записи/Источник записи: [SACD-R][OF]
Наличие водяных знаков: Нет
Год издания/переиздания диска: 2019
Жанр: Jazz
Издатель (лейбл): Fonè Jazz
Продолжительность: 40:28
Наличие сканов в содержимом раздачи: Да (сканы)

Контейнер: ISO (*.iso)
Тип рипа: image
Разрядность: 64(2,8 MHz/1 Bit)
Формат: DST64
Количество каналов: 2.0

Источник (релизер): ManWhoCan
https://foneshop.it/it/super-audio-cd/324-i-remember-you-carnevale-kramer-conte.html

Лог проверки качества
foobar2000 1.4 / Dynamic Range Meter 1.1.1
log date: 2019-07-17 20:12:43

--------------------------------------------------------------------------------
Analyzed: CARNOVALE KRAMER CONTE / CARNOVALE KRAMER CONTE
--------------------------------------------------------------------------------

DR         Peak         RMS     Duration Track
--------------------------------------------------------------------------------
DR16      -4.11 dB   -24.43 dB      5:42 01-I REMEMBER YOU
DR13      -6.61 dB   -24.34 dB      4:00 02-MADRIGALE
DR14      -6.24 dB   -27.40 dB      7:38 03-I'LL CLOSE MY EYES
DR14      -3.89 dB   -24.88 dB      2:26 04-ALONE
DR15      -3.75 dB   -23.88 dB      5:56 05-WHAT IS THIS THING CALLED LOVE
DR15      -5.23 dB   -26.51 dB      8:20 06-EMERSION
DR15      -4.12 dB   -27.49 dB      6:28 07-CKC
--------------------------------------------------------------------------------

Number of tracks:  7
Official DR value: DR15

Samplerate:        2822400 Hz / PCM Samplerate: 352800 Hz
Channels:          2
Bits per sample:   1
Bitrate:           5645 kbps
Codec:             DST64
================================================================================
По всем вопросам пишите личное сообщение пользователю M0p94ok.
17:58
582
Нет комментариев. Ваш будет первым!