Вы используете незарегистрированную версию компонента "Вкладки"!

Поиск

2019 Chano Dominguez & Hadar Noiberg - Paramus {Sunnyside} [24-88,2]

2019 Chano Dominguez & Hadar Noiberg - Paramus {Sunnyside} [24-88,2]
Битрейт аудио:
lossless
Доп. инфо:

Формат записи/Источник записи: [TR24][OF]
Наличие водяных знаков: Нет
Год издания/переиздания диска: 2019
Жанр: Flamenco, Contemporary Jazz
Издатель (лейбл): Sunnyside
Продолжительность: 01:03:46
Наличие сканов в содержимом раздачи: Только обложка альбома

Контейнер: FLAC (*.flac)
Тип рипа: tracks
Разрядность: 24/88,2
Формат: PCM
Количество каналов: 2.0

Источник (релизер): redacted <-- qobuz

Лог проверки качества
foobar2000 1.5.4 / Dynamic Range Meter 1.1.1
log date: 2020-06-29 21:55:39

--------------------------------------------------------------------------------
Analyzed: Chano Dominguez & Hadar Noiberg / Paramus
--------------------------------------------------------------------------------

DR         Peak         RMS     Duration Track
--------------------------------------------------------------------------------
DR8       -0.50 dB   -11.47 dB      6:06 01-Alegrias de Cai
DR8       -0.50 dB   -12.23 dB      7:07 02-Cancion de Amor
DR7       -0.50 dB   -10.57 dB      3:53 03-Carrusel
DR7       -0.50 dB   -10.83 dB      5:59 04-Chango
DR8       -0.50 dB   -10.71 dB      5:41 05-HH
DR7       -0.50 dB   -11.72 dB      5:11 06-If I Think of You
DR7       -0.50 dB    -9.23 dB      4:11 07-Loro
DR9       -0.50 dB   -12.74 dB      6:38 08-Morenika
DR8       -0.50 dB   -12.38 dB      5:36 09-Na'ama
DR8       -0.50 dB   -11.63 dB      7:11 10-Paramus
DR7       -0.50 dB   -10.33 dB      6:13 11-Plaza de Mina
--------------------------------------------------------------------------------

Number of tracks:  11
Official DR value: DR8

Samplerate:        88200 Hz
Channels:          2
Bits per sample:   24
Bitrate:           2252 kbps
Codec:             FLAC
================================================================================
Any questions - support@pro-jazz.com. Есть вопросы - support@pro-jazz.com
08:03
243
Нет комментариев. Ваш будет первым!