Поиск

2019 Caroline Davis & Rob Clearfield's Persona - Anthems {Sunnyside} [24-88.2]

2019 Caroline Davis & Rob Clearfield's Persona - Anthems {Sunnyside} [24-88.2]
Стили:
Дата издания диска:
27 сентября 2019
Издатель (лейбл):
Битрейт аудио:
lossless

Состав:
  • Caroline Davis — alto saxophone
  • Rob Clearfield — piano, Fender Rhodes, Moog synthesizer
  • Sam Weber — acoustic & electric bass
  • Jay Sawyer — drums
Лог проверки качества
foobar2000 1.6.10 / Dynamic Range Meter 1.1.1
log date: 2022-12-17 10:34:12

--------------------------------------------------------------------------------
Analyzed: Caroline Davis & Rob Clearfield's Persona / Anthems
--------------------------------------------------------------------------------

DR         Peak         RMS     Duration Track
--------------------------------------------------------------------------------
DR11      -1.35 dB   -13.64 dB      2:31 01-People Look Like Tanks
DR13      -1.20 dB   -18.23 dB      8:26 02-Bots
DR12      -0.84 dB   -14.67 dB      1:27 03-Anthem
DR11      -0.83 dB   -13.14 dB      3:52 04-Miss Ann
DR11      -2.08 dB   -16.99 dB      3:09 05-A Soothing, Melancholy Breeze
DR12      -0.84 dB   -15.59 dB      5:54 06-Green
DR11      -0.83 dB   -13.64 dB      1:48 07-Anthem [reprise]
DR10      -0.83 dB   -15.96 dB     10:34 08-Secrets
DR10      -0.83 dB   -13.77 dB      6:22 09-Lithe
--------------------------------------------------------------------------------

Number of tracks:  9
Official DR value: DR11

Samplerate:        88200 Hz
Channels:          2
Bits per sample:   24
Bitrate:           2688 kbps
Codec:             FLAC
================================================================================
11:44
294
Нет комментариев. Ваш будет первым!