Поиск

2019 Carmen Gomes Inc. - Don't You Cry {Sound Liaison} [DXD 24-352]

2019 Carmen Gomes Inc. - Don't You Cry {Sound Liaison} [DXD 24-352]
Стили:
Издатель (лейбл):

01 - Unchain My Heart (6:09)
02 - Do I Move You (5:08)
03 - Summertime (5:57)
04 - Billie's Blues (6:04)
05 - Don't Let Me Be (4:33)
06 - Sweet Lorraine (5:19)
07 - How Long (4:00)
08 - I'm Walking (2:39)
09 - Where Can I Go Without You (5:45)
10 - Grown Accustomed To His Face (5:39)
11 - As I Do (4:30)

Состав:
  • Carmen Gomes - vocal
  • Folker Tettero - guitar
  • Peter Bjørnild - double-bass
  • Bert Kamsteeg - drums
Лог проверки качества
foobar2000 1.4.2 / Dynamic Range Meter 1.1.1
log date: 2019-03-17 21:42:52

--------------------------------------------------------------------------------
Analyzed: Carmen Gomes Inc. / Don't You Cry
--------------------------------------------------------------------------------

DR         Peak         RMS     Duration Track
--------------------------------------------------------------------------------
DR12      -0.33 dB   -15.19 dB      6:09 01-Unchain My Heart
DR10      -0.30 dB   -15.27 dB      5:08 02-Do I Move You
DR13      -2.24 dB   -20.03 dB      5:57 03-Summertime
DR13      -0.33 dB   -16.71 dB      6:04 04-Billie's Blues
DR12      -1.84 dB   -17.57 dB      4:33 05-Don't Let Me Be
DR13      -0.44 dB   -17.33 dB      5:19 06-Sweet Lorraine
DR14      -0.33 dB   -18.87 dB      4:00 07-How Long
DR12      -0.32 dB   -14.63 dB      2:39 08-I'm Walking
DR11      -3.95 dB   -20.25 dB      5:45 09-Where Can I Go Without You
DR12      -2.70 dB   -18.54 dB      5:39 10-Grown Accustomed To His Face
DR11      -2.29 dB   -16.61 dB      4:30 11-As I Do
--------------------------------------------------------------------------------

Number of tracks:  11
Official DR value: DR12

Samplerate:        352800 Hz
Channels:          2
Bits per sample:   24
Bitrate:           9263 kbps
Codec:             FLAC
================================================================================
Скриншот спектра частот
2019 Carmen Gomes Inc. - Don't You Cry {Sound Liaison} [DXD 24-352] 02019 Carmen Gomes Inc. - Don't You Cry {Sound Liaison} [DXD 24-352] 12019 Carmen Gomes Inc. - Don't You Cry {Sound Liaison} [DXD 24-352] 22019 Carmen Gomes Inc. - Don't You Cry {Sound Liaison} [DXD 24-352] 3
09:04
1288
Нет комментариев. Ваш будет первым!