Поиск

2019 Ari Hoenig Trio - Conner's Days {Fresh Sound New Talent} [24-44,1]

2019 Ari Hoenig Trio - Conner's Days {Fresh Sound New Talent} [24-44,1]
Стили:
Издатель (лейбл):
Треклист:

01. Conner’s Days (Ari Hoenig) 2:14
02. All the Things You Are (Kern-Hammerstein II) 5:51
03. Anymore (Ari Hoenig) 6:04
04. Prelude To a Kiss (Ellington-Gordon Mills) 5:01
05. For Tracy (Ari Hoenig) 5:31
06. Figuration (Hoenig-Hershkovits-Bareket) 5:09
07. Bewitched, Bothered and Bewildered (Rodgers-Hart) 4:02
08. All of You (Cole Porter) 5:06
09. Guernsey St. Gooseneck (Ari Hoenig) 6:37
10. In the Wee Small Hours of the Morning (Mann-Hilliard) 4:21
11. Up (Ari Hoenig) 2:25
12. Conner's Days [Reprise] (Ari Hoenig) 1:58

Состав:
  • Ari Hoenig (drums)
  • Nitai Hershkovits (piano)
  • Or Bareket (bass)
Доп. инфо:

Формат записи/Источник записи: [TR24][OF]
Наличие водяных знаков: Нет
Год издания/переиздания диска: 2019
Продолжительность: 00:54:25
Наличие сканов в содержимом раздачи: Нет

Контейнер: FLAC (*.flac)
Тип рипа: tracks
Разрядность: 24/44,1
Формат: PCM
Количество каналов: 2.0

Источник (релизер): qobuz.com (redacted.ch)

Лог проверки качества
foobar2000 1.4.5 beta 1 / Dynamic Range Meter 1.1.1
log date: 2019-06-06 08:05:02

--------------------------------------------------------------------------------
Analyzed: Ari Hoenig / Conner's Days
--------------------------------------------------------------------------------

DR         Peak         RMS     Duration Track
--------------------------------------------------------------------------------
DR13      -1.21 dB   -16.37 dB      1:58 01-Conner's Days
DR11      -1.21 dB   -14.56 dB      5:54 02-All the Things You Are
DR11      -1.14 dB   -14.79 dB      6:04 03-Anymore
DR13      -1.22 dB   -18.20 dB      5:02 04-Prelude to a Kiss
DR14      -1.20 dB   -18.71 dB      5:33 05-For Tracy
DR11      -1.21 dB   -15.61 dB      5:10 06-Figuration
DR13      -1.22 dB   -16.90 dB      4:04 07-Bewitched, Bothered and Bewildered
DR12      -1.22 dB   -15.37 dB      5:08 08-All of You
DR10      -1.16 dB   -14.21 dB      6:29 09-Guernsey St. Gooseneck
DR13      -1.13 dB   -18.10 dB      4:22 10-In the Wee Small Hours of the Morning
DR12      -1.19 dB   -15.57 dB      2:26 11-Up
DR12      -1.22 dB   -16.36 dB      2:15 12-Conner's Days Reprise
--------------------------------------------------------------------------------

Number of tracks:  12
Official DR value: DR12

Samplerate:        44100 Hz
Channels:          2
Bits per sample:   24
Bitrate:           1492 kbps
Codec:             FLAC
================================================================================
По всем вопросам пишите личное сообщение пользователю M0p94ok.
09:22
499
Нет комментариев. Ваш будет первым!