Поиск

2019 Alexander Claffy - Claffy II {Ring Road} [24-96]

2019 Alexander Claffy - Claffy II {Ring Road} [24-96]
Дата издания диска:
1 ноября 2019
Носитель:
WEB
Формат:
PCM
Тип рипа:
tracks
Контейнер:
FLAC (*.flac)
Количество каналов:
2.0
Разрядность/ЧД:
24/96
Битрейт аудио:
lossless
Наличие сканов:
только обложка

1. Windmills of Your Mind ft. Kate Kay Es, Josh Evans  05:39
2. Lucy in the Sky with Diamonds ft. Sonny Step  05:02
3. Evelina  04:41
4. Growing Pains  07:39
5. Tassia ft. Kurt Rosenwinkel  07:37

Состав:
  •     Bass, Keyboards, Voice, Producer – Alexander Claffy
  •     Drums – Adam Arruda (tracks: 1, 2), Bill Campbell (7) (tracks: 5), Corey Fonville (tracks: 3), Kush Abadey (tracks: 4)
  •     Electronic Valve Instrument – John Swana (tracks: 3)
  •     Engineer, Mixed By, Mastered By, Producer – Michael Perez-Cisneros
  •     Guitar – Kurt Rosenwinkel (tracks: 5)
  •     Guitar, Producer – Ben Eunson
  •     Organ – Michael King (17) (tracks: 4)
  •     Piano – Addison Frei (tracks: 5), Eden Ladin (tracks: 1-4)
  •     Saxophone – Matt Chalk (2) (tracks: 2, 4)
  •     Trumpet – Josh Evans (6) (tracks: 1)
  •     Voice – Kate Kelsey-Sugg (tracks: 1, 3), Michael Stephenson (7) (tracks: 2)
Лог проверки качества
foobar2000 1.6.10 / Dynamic Range Meter 1.1.1
log date: 2022-07-09 21:07:22

--------------------------------------------------------------------------------
Analyzed: Alexander Claffy / CLAFFY II
--------------------------------------------------------------------------------

DR         Peak         RMS     Duration Track
--------------------------------------------------------------------------------
DR8       -1.26 dB   -11.01 dB      5:40 01-Windmills of Your Mind
DR8       -1.26 dB   -11.66 dB      5:02 02-Lucy in the Sky with Diamonds
DR8       -1.26 dB   -10.85 dB      4:42 03-Evelina
DR8       -1.26 dB   -12.09 dB      7:40 04-Growing Pains
DR9       -1.26 dB   -12.96 dB      7:37 05-Tassia
--------------------------------------------------------------------------------

Number of tracks:  5
Official DR value: DR8

Samplerate:        96000 Hz
Channels:          2
Bits per sample:   24
Bitrate:           2685 kbps
Codec:             FLAC
================================================================================
Приватный:
Нет (DHT включён)
Размер:
613.39 Мб (643,185,765 байт) » файлов: 8
Участники:
120 раздают, 0 качают (120 участников всего)
Внешние участники:
--- [ Обновить ]
21:13
456
Нет комментариев. Ваш будет первым!