Вы используете незарегистрированную версию компонента "Вкладки"!

Поиск

2019 Alan Broadbent Trio - New York Notes {Savant SCD 2166} [CD]

2019 Alan Broadbent Trio - New York Notes {Savant SCD 2166} [CD]
Стили:
Место записи:
RVS Studio
Битрейт аудио:
lossless
Доп. инфо:

Носитель: CD
Год издания: 2019
Издатель (лейбл): Savant
Номер по каталогу: SCD 2166
Аудиокодек: FLAC (*.flac)
Тип рипа: tracks+.cue
Продолжительность: 01:02:35
Источник: redacted
Наличие сканов в содержимом раздачи: да

Лог создания рипа
Exact Audio Copy V1.3 from 2. September 2016

EAC extraction logfile from 20. July 2020, 9:51

Alan Broadbent Trio / New York Notes

Used drive  : PLEXTOR PX-891SAF   Adapter: 1  ID: 0

Read mode               : Secure
Utilize accurate stream : Yes
Defeat audio cache      : Yes
Make use of C2 pointers : No

Read offset correction                      : 6
Overread into Lead-In and Lead-Out          : No
Fill up missing offset samples with silence : Yes
Delete leading and trailing silent blocks   : No
Null samples used in CRC calculations       : Yes
Used interface                              : Native Win32 interface for Win NT & 2000
Gap handling                                : Appended to previous track

Used output format              : User Defined Encoder
Selected bitrate                : 1024 kBit/s
Quality                         : High
Add ID3 tag                     : No
Command line compressor         : C:\Program Files (x86)\Exact Audio Copy\Flac\flac.exe
Additional command line options : -8 -V -T "ARTIST=%artist%" -T "TITLE=%title%" -T "ALBUM=%albumtitle%" -T "DATE=%year%" -T "TRACKNUMBER=%tracknr%" -T "GENRE=%genre%" -T "PERFORMER=%albuminterpret%" -T "COMPOSER=%composer%" %haslyrics%--tag-from-file=LYRICS="%lyricsfile%"%haslyrics% -T "ALBUMARTIST=%albumartist%" -T "DISCNUMBER=%cdnumber%" -T "TOTALDISCS=%totalcds%" -T "TOTALTRACKS=%numtracks%" -T "COMMENT=%comment%" %source% -o %dest%

TOC of the extracted CD

     Track |   Start  |  Length  | Start sector | End sector
    ---------------------------------------------------------
        1  |  0:00.00 |  8:46.12 |         0    |    39461
        2  |  8:46.12 |  8:20.37 |     39462    |    76998
        3  | 17:06.49 |  7:11.71 |     76999    |   109394
        4  | 24:18.45 |  8:34.27 |    109395    |   147971
        5  | 32:52.72 |  5:11.02 |    147972    |   171298
        6  | 38:03.74 |  5:42.39 |    171299    |   196987
        7  | 43:46.38 |  6:30.08 |    196988    |   226245
        8  | 50:16.46 |  4:40.65 |    226246    |   247310
        9  | 54:57.36 |  7:38.29 |    247311    |   281689

Track  1

     Filename D:\#EAC new\#wav+flac\#add\Alan Broadbent Trio - New York Notes\01. Alan Broadbent Trio - Clifford Notes.wav

     Pre-gap length  0:00:02.00

     Peak level 98.0 %
     Extraction speed 5.9 X
     Track quality 100.0 %
     Test CRC 14F8AFCF
     Copy CRC 14F8AFCF
     Accurately ripped (confidence 3)  [7E20C2DD]  (AR v2)
     Copy OK

Track  2

     Filename D:\#EAC new\#wav+flac\#add\Alan Broadbent Trio - New York Notes\02. Alan Broadbent Trio - Minority.wav

     Pre-gap length  0:00:01.76

     Peak level 98.0 %
     Extraction speed 7.0 X
     Track quality 100.0 %
     Test CRC D5B54254
     Copy CRC D5B54254
     Accurately ripped (confidence 3)  [A35CB111]  (AR v2)
     Copy OK

Track  3

     Filename D:\#EAC new\#wav+flac\#add\Alan Broadbent Trio - New York Notes\03. Alan Broadbent Trio - I Fall in Love Too Easily.wav

     Pre-gap length  0:00:01.76

     Peak level 98.0 %
     Extraction speed 7.1 X
     Track quality 99.9 %
     Test CRC 37BF1CBD
     Copy CRC 37BF1CBD
     Accurately ripped (confidence 3)  [201827FF]  (AR v2)
     Copy OK

Track  4

     Filename D:\#EAC new\#wav+flac\#add\Alan Broadbent Trio - New York Notes\04. Alan Broadbent Trio - Continuity.wav

     Pre-gap length  0:00:01.76

     Peak level 91.0 %
     Extraction speed 8.7 X
     Track quality 100.0 %
     Test CRC 41A70F81
     Copy CRC 41A70F81
     Accurately ripped (confidence 3)  [561D6E8D]  (AR v2)
     Copy OK

Track  5

     Filename D:\#EAC new\#wav+flac\#add\Alan Broadbent Trio - New York Notes\05. Alan Broadbent Trio - Crazeology.wav

     Pre-gap length  0:00:01.76

     Peak level 89.6 %
     Extraction speed 9.0 X
     Track quality 100.0 %
     Test CRC D01D1DB0
     Copy CRC D01D1DB0
     Accurately ripped (confidence 3)  [66DE445D]  (AR v2)
     Copy OK

Track  6

     Filename D:\#EAC new\#wav+flac\#add\Alan Broadbent Trio - New York Notes\06. Alan Broadbent Trio - On a Misty Night.wav

     Pre-gap length  0:00:01.76

     Peak level 98.0 %
     Extraction speed 9.4 X
     Track quality 100.0 %
     Test CRC 1060E30C
     Copy CRC 1060E30C
     Accurately ripped (confidence 3)  [B3580E58]  (AR v2)
     Copy OK

Track  7

     Filename D:\#EAC new\#wav+flac\#add\Alan Broadbent Trio - New York Notes\07. Alan Broadbent Trio - Waltz Prelude.wav

     Pre-gap length  0:00:01.76

     Peak level 98.0 %
     Extraction speed 8.9 X
     Track quality 99.9 %
     Test CRC 689A0659
     Copy CRC 689A0659
     Accurately ripped (confidence 3)  [454D895F]  (AR v2)
     Copy OK

Track  8

     Filename D:\#EAC new\#wav+flac\#add\Alan Broadbent Trio - New York Notes\08. Alan Broadbent Trio - 317 East 32nd Street.wav

     Pre-gap length  0:00:01.76

     Peak level 98.0 %
     Extraction speed 8.3 X
     Track quality 99.9 %
     Test CRC C0292313
     Copy CRC C0292313
     Accurately ripped (confidence 3)  [AB0356B6]  (AR v2)
     Copy OK

Track  9

     Filename D:\#EAC new\#wav+flac\#add\Alan Broadbent Trio - New York Notes\09. Alan Broadbent Trio - Fine and Dandy.wav

     Pre-gap length  0:00:01.76

     Peak level 97.6 %
     Extraction speed 10.9 X
     Track quality 100.0 %
     Test CRC 0CF4D8E3
     Copy CRC 0CF4D8E3
     Accurately ripped (confidence 3)  [F2C83A78]  (AR v2)
     Copy OK

All tracks accurately ripped

No errors occurred

End of status report

---- CUETools DB Plugin V2.1.6

[CTDB TOCID: OWRoGcMQeD.r7K0l0ntHjfMa52M-] found
Submit result: OWRoGcMQeD.r7K0l0ntHjfMa52M- has been confirmed
Track | CTDB Status
  1   | (7/7) Accurately ripped
  2   | (7/7) Accurately ripped
  3   | (7/7) Accurately ripped
  4   | (7/7) Accurately ripped
  5   | (7/7) Accurately ripped
  6   | (7/7) Accurately ripped
  7   | (7/7) Accurately ripped
  8   | (7/7) Accurately ripped
  9   | (7/7) Accurately ripped

==== Log checksum 64AE81D5B4480E0C10C07029C8AD45C6DF6F5629D1BED845ABC8D97EDF53E607 ====
Содержание индексной карты (.CUE)
REM GENRE Jazz
REM DATE 2019
REM DISCID 820EAB09
REM COMMENT "ExactAudioCopy v1.3"
CATALOG 0633842216621
PERFORMER "Alan Broadbent"
TITLE "New York Notes"
FILE "01 - Clifford Notes.wav" WAVE
  TRACK 01 AUDIO
    TITLE "Clifford Notes"
    PERFORMER "Alan Broadbent"
    ISRC USSTR1916601
    INDEX 01 00:00:00
  TRACK 02 AUDIO
    TITLE "Minority"
    PERFORMER "Alan Broadbent"
    ISRC USSTR1916602
    INDEX 00 08:44:30
FILE "02 - Minority.wav" WAVE
    INDEX 01 00:00:00
  TRACK 03 AUDIO
    TITLE "I Fall in Love Too Easily"
    PERFORMER "Alan Broadbent"
    ISRC USSTR1916603
    INDEX 00 08:18:55
FILE "03 - I Fall in Love Too Easily.wav" WAVE
    INDEX 01 00:00:00
  TRACK 04 AUDIO
    TITLE "Continuity"
    PERFORMER "Alan Broadbent"
    ISRC USSTR1916604
    INDEX 00 07:10:14
FILE "04 - Continuity.wav" WAVE
    INDEX 01 00:00:00
  TRACK 05 AUDIO
    TITLE "Crazeology"
    PERFORMER "Alan Broadbent"
    ISRC USSTR1916605
    INDEX 00 08:32:45
FILE "05 - Crazeology.wav" WAVE
    INDEX 01 00:00:00
  TRACK 06 AUDIO
    TITLE "On a Misty Night"
    PERFORMER "Alan Broadbent"
    ISRC USSTR1916606
    INDEX 00 05:09:20
FILE "06 - On a Misty Night.wav" WAVE
    INDEX 01 00:00:00
  TRACK 07 AUDIO
    TITLE "Waltz Prelude"
    PERFORMER "Alan Broadbent"
    ISRC USSTR1916607
    INDEX 00 05:40:57
FILE "07 - Waltz Prelude.wav" WAVE
    INDEX 01 00:00:00
  TRACK 08 AUDIO
    TITLE "317 East 32nd Street"
    PERFORMER "Alan Broadbent"
    ISRC USSTR1916608
    INDEX 00 06:28:26
FILE "08 - 317 East 32nd Street.wav" WAVE
    INDEX 01 00:00:00
  TRACK 09 AUDIO
    TITLE "Fine and Dandy"
    PERFORMER "Alan Broadbent"
    ISRC USSTR1916609
    INDEX 00 04:39:08
FILE "09 - Fine and Dandy.wav" WAVE
    INDEX 01 00:00:00
Лог проверки качества
[CUETools log; Date: 30.07.2020 20:46:51; Version: 2.1.6]
[CTDB TOCID: OWRoGcMQeD.r7K0l0ntHjfMa52M-] found.
Track | CTDB Status
  1   | (8/8) Accurately ripped
  2   | (8/8) Accurately ripped
  3   | (8/8) Accurately ripped
  4   | (8/8) Accurately ripped
  5   | (8/8) Accurately ripped
  6   | (8/8) Accurately ripped
  7   | (8/8) Accurately ripped
  8   | (8/8) Accurately ripped
  9   | (8/8) Accurately ripped
[AccurateRip ID: 0016d912-00a3fb73-820eab09] found.
Track   [  CRC   |   V2   ] Status
 01     [1bda3576|7e20c2dd] (0+3/3) Accurately ripped
 02     [76883760|a35cb111] (0+3/3) Accurately ripped
 03     [83ec92ba|201827ff] (0+3/3) Accurately ripped
 04     [9a936bcd|561d6e8d] (0+3/3) Accurately ripped
 05     [bf90b995|66de445d] (0+3/3) Accurately ripped
 06     [1ffb33da|b3580e58] (0+3/3) Accurately ripped
 07     [01fa1d5e|454d895f] (0+3/3) Accurately ripped
 08     [c956428b|ab0356b6] (0+3/3) Accurately ripped
 09     [1906c516|f2c83a78] (0+3/3) Accurately ripped

Track Peak [ CRC32  ] [W/O NULL] [  LOG   ]
 --   98,0 [C2E80783] [0573E34E]
 01   98,0 [14F8AFCF] [956847B5]   CRC32
 02   98,0 [D5B54254] [145E04B8]   CRC32
 03   98,0 [37BF1CBD] [C1AAD519]   CRC32
 04   91,0 [41A70F81] [5AA3D2DC]   CRC32
 05   89,6 [D01D1DB0] [3BA2740B]   CRC32
 06   98,0 [1060E30C] [C74A34EB]   CRC32
 07   98,0 [689A0659] [40E38F7D]   CRC32
 08   98,0 [C0292313] [090A523F]   CRC32
 09   97,6 [0CF4D8E3] [19324CE5]   CRC32
Any questions - support@pro-jazz.com. Есть вопросы - support@pro-jazz.com
10:54
195
Нет комментариев. Ваш будет первым!