Поиск

2019 3City Stompers - Hulanka {Jimmy Jazz} [24-44.1]

2019 3City Stompers - Hulanka {Jimmy Jazz} [24-44.1]
Стили:
Место записи:
Maro Record
Дата издания диска:
18 октября 2019
Номер по каталогу:
JAZZ 200
Носитель:
WEB
Формат:
PCM
Тип рипа:
tracks
Контейнер:
FLAC (*.flac)
Количество каналов:
2.0
Разрядность/ЧД:
24/44,1
Битрейт аудио:
lossless
Время звучания:
00:50:35
Наличие сканов:
только обложка
Страна-производитель диска (релиза):
Poland
Релизёр (источник):
Pun40l9
Лог проверки качества
foobar2000 1.6.2 / Dynamic Range Meter 1.1.1
log date: 2021-06-19 18:52:58

--------------------------------------------------------------------------------
Analyzed: 3City Stompers / Hulanka
--------------------------------------------------------------------------------

DR         Peak         RMS     Duration Track
--------------------------------------------------------------------------------
DR6        0.00 dB    -7.39 dB      4:01 01-Tarantino
DR6        0.00 dB    -7.83 dB      3:44 02-Ska Trójmiasto
DR5        0.00 dB    -6.90 dB      3:48 03-Skok Na Bank
DR6        0.00 dB    -6.89 dB      3:15 04-Stomp
DR5        0.00 dB    -5.73 dB      3:20 05-Ska Misja
DR6        0.00 dB    -7.67 dB      3:28 06-Bo-Ska
DR5        0.00 dB    -6.39 dB      4:34 07-Łajdaki
DR8        0.00 dB    -9.80 dB      3:12 08-Magnolie
DR5        0.00 dB    -6.42 dB      3:08 09-Drwal
DR5        0.00 dB    -6.20 dB      3:15 10-Łobuzerka Na Rowerkach
DR6        0.00 dB    -8.16 dB      4:04 11-Linton Nocą
DR7        0.00 dB    -7.92 dB      3:15 12-Nie Przejmuję Się
DR5        0.00 dB    -6.07 dB      2:52 13-Zwiąż Mnie
DR5        0.00 dB    -6.89 dB      4:47 14-Hooligan
--------------------------------------------------------------------------------

Number of tracks:  14
Official DR value: DR6

Samplerate:        44100 Hz
Channels:          2
Bits per sample:   24
Bitrate:           1732 kbps
Codec:             FLAC
================================================================================
No seeders - write personal message to M0p94ok. Any questions - support@pro-jazz.com.
Нет сидеров - пишите в личку M0p94ok. Есть вопросы - support@pro-jazz.com
18:59
56
Нет комментариев. Ваш будет первым!