Поиск

2018 Wynton Marsalis Septet - United We Swing: Best of the Jazz at Lincoln Center Galas {Blue Engine} [CD]

2018 Wynton Marsalis Septet - United We Swing: Best of the Jazz at Lincoln Center Galas {Blue Engine} [CD]
Место записи:
Apollo Theater; Jazz At Lincoln Center's Frederick P. Rose Hall
Дата издания диска:
23 марта 2018
Номер по каталогу:
BE0011
Носитель:
CD
Тип рипа:
tracks+.cue
Аудиокодек:
FLAC (*.flac)
Битрейт аудио:
lossless
Время звучания:
01:10:39
Наличие сканов:
web
Страна-производитель диска (релиза):
USA
Релизёр (источник):
catfish27
Лог создания рипа
X Lossless Decoder version 20181019 (151.1)

XLD extraction logfile from 2019-01-03 18:14:51 -0800

Wynton Marsalis Septet  / United We Swing: Best of the Jazz at Lincoln Center Galas

Used drive : PIONEER BD-RW   BDR-XD05 (revision 3.10)
Media type : Pressed CD

Ripper mode             : XLD Secure Ripper
Disable audio cache     : OK for the drive with a cache less than 1375KiB
Make use of C2 pointers : NO
Read offset correction  : 667
Max retry count         : 100
Gap status              : Analyzed, Appended (except HTOA)

TOC of the extracted CD
     Track |   Start  |  Length  | Start sector | End sector
    ---------------------------------------------------------
        1  | 00:00:00 | 04:15:36 |         0    |    19160
        2  | 04:15:36 | 04:31:01 |     19161    |    39486
        3  | 08:46:37 | 03:46:46 |     39487    |    56482
        4  | 12:33:08 | 03:03:44 |     56483    |    70251
        5  | 15:36:52 | 03:12:33 |     70252    |    84684
        6  | 18:49:10 | 04:19:39 |     84685    |   104148
        7  | 23:08:49 | 02:44:06 |    104149    |   116454
        8  | 25:52:55 | 03:46:48 |    116455    |   133452
        9  | 29:39:28 | 06:43:35 |    133453    |   163712
       10  | 36:22:63 | 04:06:04 |    163713    |   182166
       11  | 40:28:67 | 03:27:49 |    182167    |   197740
       12  | 43:56:41 | 07:36:29 |    197741    |   231969
       13  | 51:32:70 | 04:22:25 |    231970    |   251644
       14  | 55:55:20 | 04:04:15 |    251645    |   269959
       15  | 59:59:35 | 05:35:08 |    269960    |   295092
       16  | 65:34:43 | 05:04:43 |    295093    |   317935

AccurateRip Summary (DiscID: 0026abce-01d67611-e3108f10)
    Track 01 : OK (v2, confidence 12/12)
    Track 02 : OK (v2, confidence 12/12)
    Track 03 : OK (v2, confidence 12/12)
    Track 04 : OK (v2, confidence 12/12)
    Track 05 : OK (v2, confidence 12/12)
    Track 06 : OK (v2, confidence 12/12)
    Track 07 : OK (v2, confidence 12/12)
    Track 08 : OK (v2, confidence 12/12)
    Track 09 : OK (v2, confidence 12/12)
    Track 10 : OK (v2, confidence 12/12)
    Track 11 : OK (v2, confidence 12/12)
    Track 12 : OK (v2, confidence 12/12)
    Track 13 : OK (v2, confidence 12/12)
    Track 14 : OK (v2, confidence 12/12)
    Track 15 : OK (v2, confidence 12/12)
    Track 16 : OK (v2, confidence 12/12)
        ->All tracks accurately ripped.

All Tracks
    Album gain               : -6.49 dB
    Peak                     : 0.999969
    Statistics
        Read error                           : 0
        Jitter error (maybe fixed)           : 0
        Retry sector count                   : 0
        Damaged sector count                 : 0

Track 01
    Filename : /Volumes/Hollywood and Vine/Rips/Wynton Marsalis Septet  - United We Swingпјљ Best of the Jazz at Lincoln Center Galas (2018) [FLAC]/01 The Last Time.flac
    Pre-gap length : 00:02:00

    Track gain               : -4.55 dB
    Peak                     : 0.953339
    CRC32 hash (test run)    : 17835334
    CRC32 hash               : 17835334
    CRC32 hash (skip zero)   : 28B0262E
    AccurateRip v1 signature : 3B2095CA
    AccurateRip v2 signature : 3CEC1D6E
        ->Accurately ripped (v2, confidence 12/12)
    Statistics
        Read error                           : 0
        Jitter error (maybe fixed)           : 0
        Retry sector count                   : 0
        Damaged sector count                 : 0

Track 02
    Filename : /Volumes/Hollywood and Vine/Rips/Wynton Marsalis Septet  - United We Swingпјљ Best of the Jazz at Lincoln Center Galas (2018) [FLAC]/02 It Takes a Lot to Laugh, It Takes a Train to Cry.flac

    Track gain               : -4.44 dB
    Peak                     : 0.953247
    CRC32 hash (test run)    : 8971EFA5
    CRC32 hash               : 8971EFA5
    CRC32 hash (skip zero)   : AC6799C8
    AccurateRip v1 signature : 1EC87D0C
    AccurateRip v2 signature : 077DF6E5
        ->Accurately ripped (v2, confidence 12/12)
    Statistics
        Read error                           : 0
        Jitter error (maybe fixed)           : 0
        Retry sector count                   : 0
        Damaged sector count                 : 0

Track 03
    Filename : /Volumes/Hollywood and Vine/Rips/Wynton Marsalis Septet  - United We Swingпјљ Best of the Jazz at Lincoln Center Galas (2018) [FLAC]/03 I'm Gonna Move to the Outskirts of Town.flac

    Track gain               : -7.89 dB
    Peak                     : 0.953430
    CRC32 hash (test run)    : CF512772
    CRC32 hash               : CF512772
    CRC32 hash (skip zero)   : 8ECD8323
    AccurateRip v1 signature : B45F58B9
    AccurateRip v2 signature : 747D339B
        ->Accurately ripped (v2, confidence 12/12)
    Statistics
        Read error                           : 0
        Jitter error (maybe fixed)           : 0
        Retry sector count                   : 0
        Damaged sector count                 : 0

Track 04
    Filename : /Volumes/Hollywood and Vine/Rips/Wynton Marsalis Septet  - United We Swingпјљ Best of the Jazz at Lincoln Center Galas (2018) [FLAC]/04 I'm Not Rough.flac

    Track gain               : -6.86 dB
    Peak                     : 0.953644
    CRC32 hash (test run)    : 648AA1D6
    CRC32 hash               : 648AA1D6
    CRC32 hash (skip zero)   : DE038EEB
    AccurateRip v1 signature : 18E41108
    AccurateRip v2 signature : 480DDCBB
        ->Accurately ripped (v2, confidence 12/12)
    Statistics
        Read error                           : 0
        Jitter error (maybe fixed)           : 0
        Retry sector count                   : 0
        Damaged sector count                 : 0

Track 05
    Filename : /Volumes/Hollywood and Vine/Rips/Wynton Marsalis Septet  - United We Swingпјљ Best of the Jazz at Lincoln Center Galas (2018) [FLAC]/05 Creole Love Call.flac

    Track gain               : -4.14 dB
    Peak                     : 0.952820
    CRC32 hash (test run)    : 727B983F
    CRC32 hash               : 727B983F
    CRC32 hash (skip zero)   : 8ECE0B8C
    AccurateRip v1 signature : EEA83E21
    AccurateRip v2 signature : E33C03E0
        ->Accurately ripped (v2, confidence 12/12)
    Statistics
        Read error                           : 0
        Jitter error (maybe fixed)           : 0
        Retry sector count                   : 0
        Damaged sector count                 : 0

Track 06
    Filename : /Volumes/Hollywood and Vine/Rips/Wynton Marsalis Septet  - United We Swingпјљ Best of the Jazz at Lincoln Center Galas (2018) [FLAC]/06 Milk Cow Blues.flac

    Track gain               : -4.96 dB
    Peak                     : 0.953674
    CRC32 hash (test run)    : 399264CC
    CRC32 hash               : 399264CC
    CRC32 hash (skip zero)   : BCCC4D5E
    AccurateRip v1 signature : 1F205DCA
    AccurateRip v2 signature : D79B036A
        ->Accurately ripped (v2, confidence 12/12)
    Statistics
        Read error                           : 0
        Jitter error (maybe fixed)           : 0
        Retry sector count                   : 0
        Damaged sector count                 : 0

Track 07
    Filename : /Volumes/Hollywood and Vine/Rips/Wynton Marsalis Septet  - United We Swingпјљ Best of the Jazz at Lincoln Center Galas (2018) [FLAC]/07 I'm Gonna Find Another You.flac

    Track gain               : -7.02 dB
    Peak                     : 0.953491
    CRC32 hash (test run)    : B9FA7E7A
    CRC32 hash               : B9FA7E7A
    CRC32 hash (skip zero)   : 06A0D434
    AccurateRip v1 signature : 70CEDB5B
    AccurateRip v2 signature : FCBEA66A
        ->Accurately ripped (v2, confidence 12/12)
    Statistics
        Read error                           : 0
        Jitter error (maybe fixed)           : 0
        Retry sector count                   : 0
        Damaged sector count                 : 0

Track 08
    Filename : /Volumes/Hollywood and Vine/Rips/Wynton Marsalis Septet  - United We Swingпјљ Best of the Jazz at Lincoln Center Galas (2018) [FLAC]/08 My Baby Don't Tolerate.flac

    Track gain               : -6.51 dB
    Peak                     : 0.953735
    CRC32 hash (test run)    : FC97AC7E
    CRC32 hash               : FC97AC7E
    CRC32 hash (skip zero)   : 601A2443
    AccurateRip v1 signature : 2BDF0FEE
    AccurateRip v2 signature : 096F77AA
        ->Accurately ripped (v2, confidence 12/12)
    Statistics
        Read error                           : 0
        Jitter error (maybe fixed)           : 0
        Retry sector count                   : 0
        Damaged sector count                 : 0

Track 09
    Filename : /Volumes/Hollywood and Vine/Rips/Wynton Marsalis Septet  - United We Swingпјљ Best of the Jazz at Lincoln Center Galas (2018) [FLAC]/09 The Worst Thing.flac

    Track gain               : -6.13 dB
    Peak                     : 0.952820
    CRC32 hash (test run)    : 33A604F2
    CRC32 hash               : 33A604F2
    CRC32 hash (skip zero)   : 399E38DF
    AccurateRip v1 signature : FDBE18F3
    AccurateRip v2 signature : E2FFB37D
        ->Accurately ripped (v2, confidence 12/12)
    Statistics
        Read error                           : 0
        Jitter error (maybe fixed)           : 0
        Retry sector count                   : 0
        Damaged sector count                 : 0

Track 10
    Filename : /Volumes/Hollywood and Vine/Rips/Wynton Marsalis Septet  - United We Swingпјљ Best of the Jazz at Lincoln Center Galas (2018) [FLAC]/10 Please Baby Don't.flac

    Track gain               : -7.69 dB
    Peak                     : 0.953583
    CRC32 hash (test run)    : 46C79305
    CRC32 hash               : 46C79305
    CRC32 hash (skip zero)   : EEF67A9D
    AccurateRip v1 signature : C9E26C95
    AccurateRip v2 signature : 3769FBC2
        ->Accurately ripped (v2, confidence 12/12)
    Statistics
        Read error                           : 0
        Jitter error (maybe fixed)           : 0
        Retry sector count                   : 0
        Damaged sector count                 : 0

Track 11
    Filename : /Volumes/Hollywood and Vine/Rips/Wynton Marsalis Septet  - United We Swingпјљ Best of the Jazz at Lincoln Center Galas (2018) [FLAC]/11 Mean Old Man.flac

    Track gain               : -5.09 dB
    Peak                     : 0.953125
    CRC32 hash (test run)    : F3A2CE17
    CRC32 hash               : F3A2CE17
    CRC32 hash (skip zero)   : 284B32FA
    AccurateRip v1 signature : 2AD1A1EE
    AccurateRip v2 signature : 6F6A08C5
        ->Accurately ripped (v2, confidence 12/12)
    Statistics
        Read error                           : 0
        Jitter error (maybe fixed)           : 0
        Retry sector count                   : 0
        Damaged sector count                 : 0

Track 12
    Filename : /Volumes/Hollywood and Vine/Rips/Wynton Marsalis Septet  - United We Swingпјљ Best of the Jazz at Lincoln Center Galas (2018) [FLAC]/12 Are You Gonna Go My Way.flac

    Track gain               : -7.18 dB
    Peak                     : 0.999969
    CRC32 hash (test run)    : 65C0F188
    CRC32 hash               : 65C0F188
    CRC32 hash (skip zero)   : 0466A0D2
    AccurateRip v1 signature : CE665CCE
    AccurateRip v2 signature : D2DDC45D
        ->Accurately ripped (v2, confidence 12/12)
    Statistics
        Read error                           : 0
        Jitter error (maybe fixed)           : 0
        Retry sector count                   : 0
        Damaged sector count                 : 0

Track 13
    Filename : /Volumes/Hollywood and Vine/Rips/Wynton Marsalis Septet  - United We Swingпјљ Best of the Jazz at Lincoln Center Galas (2018) [FLAC]/13 Fool's Paradise.flac

    Track gain               : -7.38 dB
    Peak                     : 0.974365
    CRC32 hash (test run)    : FC4184C3
    CRC32 hash               : FC4184C3
    CRC32 hash (skip zero)   : 89A2D945
    AccurateRip v1 signature : D9FB7CAC
    AccurateRip v2 signature : 59D89D9F
        ->Accurately ripped (v2, confidence 12/12)
    Statistics
        Read error                           : 0
        Jitter error (maybe fixed)           : 0
        Retry sector count                   : 0
        Damaged sector count                 : 0

Track 14
    Filename : /Volumes/Hollywood and Vine/Rips/Wynton Marsalis Septet  - United We Swingпјљ Best of the Jazz at Lincoln Center Galas (2018) [FLAC]/14 Empty Bed Blues.flac

    Track gain               : -2.91 dB
    Peak                     : 0.952789
    CRC32 hash (test run)    : FDCD3B02
    CRC32 hash               : FDCD3B02
    CRC32 hash (skip zero)   : F630CB1B
    AccurateRip v1 signature : 3BADF2F8
    AccurateRip v2 signature : DFD04428
        ->Accurately ripped (v2, confidence 12/12)
    Statistics
        Read error                           : 0
        Jitter error (maybe fixed)           : 0
        Retry sector count                   : 0
        Damaged sector count                 : 0

Track 15
    Filename : /Volumes/Hollywood and Vine/Rips/Wynton Marsalis Septet  - United We Swingпјљ Best of the Jazz at Lincoln Center Galas (2018) [FLAC]/15 I Wish I Knew How It Would Feel to Be Free.flac

    Track gain               : -8.22 dB
    Peak                     : 0.983704
    CRC32 hash (test run)    : 7B7E0A18
    CRC32 hash               : 7B7E0A18
    CRC32 hash (skip zero)   : D86D94F9
    AccurateRip v1 signature : 6CD750E7
    AccurateRip v2 signature : 7EADA2DE
        ->Accurately ripped (v2, confidence 12/12)
    Statistics
        Read error                           : 0
        Jitter error (maybe fixed)           : 0
        Retry sector count                   : 0
        Damaged sector count                 : 0

Track 16
    Filename : /Volumes/Hollywood and Vine/Rips/Wynton Marsalis Septet  - United We Swingпјљ Best of the Jazz at Lincoln Center Galas (2018) [FLAC]/16 What Have You Done.flac

    Track gain               : -6.58 dB
    Peak                     : 0.953613
    CRC32 hash (test run)    : 17F9E190
    CRC32 hash               : 17F9E190
    CRC32 hash (skip zero)   : 44D1AD07
    AccurateRip v1 signature : C89DA67F
    AccurateRip v2 signature : 5B5F145A
        ->Accurately ripped (v2, confidence 12/12)
    Statistics
        Read error                           : 0
        Jitter error (maybe fixed)           : 0
        Retry sector count                   : 0
        Damaged sector count                 : 0

No errors occurred

End of status report

-----BEGIN XLD SIGNATURE-----
m8mwP8unEsMtIF5JctR6xzzkR8FkwJuZFSdA4jnpVBMd.LHc4CqK2SRMuglvAPVw7OQyoBQ0efWnjWRGjkmQ3RVBx89.mmp_6TJYaNm
-----END XLD SIGNATURE-----
No seeders - write personal message to M0p94ok. Any questions - support@pro-jazz.com.
Нет сидеров - пишите в личку M0p94ok. Есть вопросы - support@pro-jazz.com
17:41
27
Нет комментариев. Ваш будет первым!