Вы используете незарегистрированную версию компонента "Вкладки"!

Поиск

2018 VA - The Wonderful Sounds of Female Vocals {Analogue} [2DSD64]

2018 VA - The Wonderful Sounds of Female Vocals {Analogue} [2DSD64]
Битрейт аудио:
lossless
Доп. инфо:

Формат записи/Источник записи: [SACD-R][OF]
Наличие водяных знаков: Нет
Издание: Collection
Год издания/переиздания диска: 2018
Жанр: Jazz, Blues, Pop, Folk, World, & Country
Издатель (лейбл): Analogue Productions
Продолжительность: 1:32:03
Наличие сканов в содержимом раздачи: Да (сканы)

Контейнер: ISO (*.iso)
Тип рипа: image
Разрядность: 64(2,8 MHz/1 Bit)
Формат: DSD
Количество каналов: 2.0

Источник (релизер): PS3SACD
HRAudio.net

Лог проверки качества
foobar2000 1.5.4 / Dynamic Range Meter 1.1.1
log date: 2020-06-20 23:28:59

--------------------------------------------------------------------------------
Analyzed: Diana Krall / The Wonderful Sounds of Female Vocals (1)
          Dusty Springfield / The Wonderful Sounds of Female Vocals (2-3)
          Ella Fitzgerald / The Wonderful Sounds of Female Vocals (4)
          Holly Cole / The Wonderful Sounds of Female Vocals (5)
          Janis Ian / The Wonderful Sounds of Female Vocals (6)
          Jennifer Warnes / The Wonderful Sounds of Female Vocals (7)
          Joan Armatrading / The Wonderful Sounds of Female Vocals (8)
          Joan Baez / The Wonderful Sounds of Female Vocals (9-10)
          Judy Collins / The Wonderful Sounds of Female Vocals (11)
          Julie London / The Wonderful Sounds of Female Vocals (12-13)
          Myra Taylor / The Wonderful Sounds of Female Vocals (14)
          Nancy Bryan / The Wonderful Sounds of Female Vocals (15)
          Nina Simone / The Wonderful Sounds of Female Vocals (16)
          Patricia Barber / The Wonderful Sounds of Female Vocals (17)
          Patsy Cline / The Wonderful Sounds of Female Vocals (18)
          Phoebe Snow / The Wonderful Sounds of Female Vocals (19)
          Rickie Lee Jones / The Wonderful Sounds of Female Vocals (20-21)
          Shelby Lynne / The Wonderful Sounds of Female Vocals (22)
--------------------------------------------------------------------------------

DR         Peak         RMS     Duration Track
--------------------------------------------------------------------------------
DR14      -9.55 dB   -28.81 dB      6:42 20-A Case Of You
DR12      -6.02 dB   -21.77 dB      2:29 04-Son Of A Preacher Man
DR13      -7.88 dB   -25.55 dB      4:10 21-The Look of Love
DR11      -7.49 dB   -22.44 dB      3:29 02-Black Coffee
DR12      -7.44 dB   -24.88 dB      3:41 08-Tennessee Waltz
DR17      -6.89 dB   -27.76 dB      3:11 09-Breaking Silence
DR14      -8.66 dB   -25.42 dB      6:51 19-Ballad Of The Runaway Horse
DR13      -7.99 dB   -23.15 dB      3:36 17-Somebody Who Loves You
DR13      -7.77 dB   -24.36 dB      3:46 16-Diamonds And Rust
DR14      -5.01 dB   -23.65 dB      5:10 22-Brothers In Arms
DR13      -8.71 dB   -26.42 dB      4:04 18-Send In the Clowns
DR9      -10.07 dB   -23.03 dB      3:04 01-Cry Me A River
DR12      -7.63 dB   -23.67 dB      2:34 14-Blue Moon
DR14      -9.01 dB   -26.76 dB      4:01 10-Hey There
DR13      -7.07 dB   -24.00 dB      4:53 15-Blame It on the Moon
DR14      -6.08 dB   -27.53 dB      3:55 12-Plain Gold Ring
DR12      -6.24 dB   -21.59 dB      5:25 11-What a Shame
DR12      -9.44 dB   -23.69 dB      2:44 07-Crazy
DR12      -8.01 dB   -23.67 dB      4:39 03-Poetry Man
DR12      -7.88 dB   -23.90 dB      4:37 06-Show Biz Kids
DR12      -9.20 dB   -24.08 dB      3:42 13-The Moon Is Made Of Gold
DR14      -6.34 dB   -24.73 dB      5:23 05-Just A Little Lovin'
--------------------------------------------------------------------------------

Number of tracks:  22
Official DR value: DR13

Samplerate:        2822400 Hz / PCM Samplerate: 88200 Hz
Channels:          2
Bits per sample:   1
Bitrate:           5645 kbps
Codec:             DSD64
================================================================================
Any questions - support@pro-jazz.com. Есть вопросы - support@pro-jazz.com
07:32
309
Нет комментариев. Ваш будет первым!