Поиск

2018 VA - Rock: Reimagined {Chesky} [24-96]

2018 VA - Rock: Reimagined {Chesky} [24-96]
Издатель (лейбл):

Жанр: Jazz, Blues, Rock
Год издания/переиздания диска: 2018
Аудиокодек: FLAC (*.flac)
Разрядность: 24 bits / 96 kHz*
Количество каналов: 2
Тип рипа: tracks
Продолжительность: 70:03
Источник (релизер): HDtracks
Наличие сканов: booklet.pdf

Треклист:
01. Sam Yahel, Mike Moreno, Ari Hoenig, Seamus Blake - Money
02. C.C. Colletti - You Shook Me
03. John McEuen - Excitable Boy
04. Sara K. - Whipping Post*
05. The Persuasions - Pride (In The Name Of Love)
06. Dave's True Story - Walk on the Wild Side
07. John Hammond - Get Behind the Mule
08. Macy Gray - Nothing Else Matters
09. The Persuasions - One
10. Amber Rubarth - Losing My Religion
11. C.C. Colletti - Black Dog
12. Sara K. - Like a Rolling Stone*
13. Rachel Z - Come As You Are
14. Christy Baron - This Must Be Love
* - трек в 16/44,1

 
Лог проверки качества
foobar2000 1.3.12 / Замер динамического диапазона (DR) 1.1.1
Дата отчёта:  2018-05-24 00:17:51
--------------------------------------------------------------------------------
Анализ:   Sara K. / Rock: Reimagined
--------------------------------------------------------------------------------
DR         Пики         RMS           Продолжительность трека
--------------------------------------------------------------------------------
DR12      -0.01 дБ   -16.76 дБ      3:29 04-Whipping Post
DR16      -2.14 дБ   -22.06 дБ      6:57 12-Like a Rolling Stone
--------------------------------------------------------------------------------
Количество треков: 2
Реальные значения DR: DR14
Частота:   44100 Гц
Каналов:   2
Разрядность:   16
Битрейт:   635 кбит/с
Кодек:   FLAC
================================================================================
--------------------------------------------------------------------------------
Анализ:   Amber Rubarth / Rock: Reimagined (1)
          C.C. Colletti / Rock: Reimagined (2-3)
          Christy Baron / Rock: Reimagined (4)
          Dave's True Story / Rock: Reimagined (5)
          John Hammond / Rock: Reimagined (6)
          John McEuen / Rock: Reimagined (7)
          Macy Gray / Rock: Reimagined (8)
          Rachel Z / Rock: Reimagined (9)
          Sam Yahel, Mike Moreno, Ari Hoenig, Seamus Blake / Rock: Reimagined (10)
          The Persuasions / Rock: Reimagined (11-12)
--------------------------------------------------------------------------------
DR         Пики         RMS           Продолжительность трека
--------------------------------------------------------------------------------
DR11      -0.29 дБ   -15.68 дБ      4:36 10-Losing My Religion
DR15      -3.22 дБ   -23.31 дБ      6:48 02-You Shook Me
DR14      -0.93 дБ   -21.41 дБ      4:22 11-Black Dog
DR13      -0.12 дБ   -17.58 дБ      4:14 14-This Must Be Love
DR13      -0.38 дБ   -16.38 дБ      4:07 06-Walk on the Wild Side
DR14       0.00 дБ   -16.04 дБ      4:56 07-Get Behind the Mule
DR13      -0.42 дБ   -15.30 дБ      2:53 03-Excitable Boy
DR13      -0.22 дБ   -14.95 дБ      6:41 08-Nothing Else Matters
DR16      -0.04 дБ   -19.80 дБ      6:36 13-Come As You Are
DR15      -0.01 дБ   -18.65 дБ      6:49 01-Money
DR12      -0.10 дБ   -16.87 дБ      3:34 05-Pride (In The Name Of Love)
DR14      -0.47 дБ   -17.96 дБ      4:01 09-One
--------------------------------------------------------------------------------
Количество треков: 12
Реальные значения DR: DR14
Частота:   96000 Гц
Каналов:   2
Разрядность:   24
Битрейт:   2861 кбит/с
Кодек:   FLAC
================================================================================

 

Скачивание доступно после регистрации!!
Приватный:
Нет (DHT включён)
Размер:
1.30 Гб (1,391,250,429 байт) » файлов: 17
Участники:
0 раздают, 0 качают (0 участников всего)
Внешние участники:
16 раздают, 5 качают (21 участников всего) [ Обновить ]
Скорость:
0/c 2.32 Кб/c
13:56
44
RSS
Нет комментариев. Ваш будет первым!