Поиск

2018 Thumbscrew - Ours {Cuneiform} [24-48]

2018 Thumbscrew - Ours {Cuneiform} [24-48]
Издатель (лейбл):
Треклист:

Формат записи/Источник записи: [TR24][OF]
Наличие водяных знаков: Нет
Год издания/переиздания диска: 2018
Продолжительность: 56:00
Наличие сканов в содержимом раздачи: Буклет PDF
Контейнер: FLAC (*.flac)
Тип рипа: tracks
Разрядность: 24/48
Формат: PCM
Количество каналов: 2.0
Источник: bandcamp.com

Треклист:
01. Snarling Joys (5:59)
02. Saturn Way (6:14)
03. Cruel Heartless Bastards (7:00)
04. Smoketree (6:30)
05. Thumbprint (4:54)
06. One Day (7:53)
07. Rising Snow (5:04)
08. Words That Rhyme With Spangle (Angle Bangle Dangle Jangle Mangel Mangle Strangle Tangle Wangle Wrangle) (5:00)
09. Unconditional (7:28)

 
Лог проверки качества
foobar2000 1.3.9 / Dynamic Range Meter 1.1.1
log date: 2018-06-09 13:53:55
--------------------------------------------------------------------------------
Analyzed: Thumbscrew / Ours
--------------------------------------------------------------------------------
DR         Peak         RMS     Duration Track
--------------------------------------------------------------------------------
DR9       -0.31 dB   -11.39 dB      5:59 01-Snarling Joys
DR9       -0.31 dB   -13.50 dB      6:14 02-Saturn Way
DR8       -0.31 dB   -10.37 dB      7:00 03-Cruel Heartless Bastards
DR9       -0.31 dB   -11.26 dB      6:30 04-Smoketree
DR9       -0.31 dB   -11.14 dB      4:54 05-Thumbprint
DR8       -0.31 dB   -11.85 dB      7:53 06-One Day
DR10      -0.31 dB   -12.57 dB      5:04 07-Rising Snow
DR8       -0.31 dB    -9.77 dB      5:00 08-Words That Rhyme With Spangle (Angle Bangle Dangle Jangle Mangel Mangle Strangle Tangle Wangle Wrangle)
DR8       -0.31 dB   -11.78 dB      7:28 09-Unconditional
--------------------------------------------------------------------------------
Number of tracks:  9
Official DR value: DR9
Samplerate:        48000 Hz
Channels:          2
Bits per sample:   24
Bitrate:           1600 kbps
Codec:             FLAC
================================================================================

 

Состав:
Download available for power users only.
14:34
604
Нет комментариев. Ваш будет первым!