Поиск

2018 The Manhattan Transfer - The Junction {BMG 538357282}

2018 The Manhattan Transfer - The Junction {BMG  538357282}
Издатель (лейбл):

Треклист:

Носитель: CD
Страна-производитель диска (релиза): USA
Год издания: 2018
Издатель (лейбл): BMG
Номер по каталогу: 538357282
Страна исполнителя (группы): USA
Аудиокодек: FLAC (*.flac)
Тип рипа: image+.cue
Битрейт аудио: lossless
Продолжительность: 43:12
Источник (релизер): Boris1
Наличие сканов в содержимом раздачи: да

Треклист:
01. Cantaloop (Flip Out!) (4:43)
02. Swing Balboa (Down On Riverside) (3:11)
03. The Man Who Sailed Around His Soul (3:49)
04. Blues For Harry Bosch (4:24)
05. Shake Ya Boogie (Galactic Vocal Version) (4:23)
06. Sometimes I Do (4:54)
07. Ugly Man (4:48)
08. The Junction (4:56)
09. Tequila / The Way Of The Booze (3:04)
10. The Paradise Within (AKA Paradise Found) (5:00)

Состав:
  • Brian Benning Strings, Violin
  • Cheryl Bentyne Composer, Vocals, Voiceover
  • Don Breithaupt Composer, Drum Programming, Keyboards
  • Can Canbolat Strings
  • Trist Curless Composer, Vocals
  • Eddie Elllis Guitar
  • Mary Sue England Liner Notes
  • Brandon Fields Guitar, Saxophone
  • Scott Frankfurt Drums, Mixing, Percussion
  • Yaron Gershovsky Soloist
  • Christopher Harrison Composer, Drum Programming, Keyboards
  • Freddie Hubbard Soloist
  • Paul Jackson, Jr. Guitar, Guitar (Acoustic)
  • Grace Kelly Composer, Saxophone
  • Matt Lapointe Engineer
  • Alan Paul Composer, Vocal Arrangement, Vocals, Voiceover
  • Wayne Peet Engineer
  • Luisito Quintero Percussion
  • Ray Reinebach Strings
  • Tony Shepperd Engineer
  • Janis Siegel Composer, Trumpet, Vocals
  • Jen Simone Strings
  • Knox Summerour Flugelhorn, Trumpet
  • Mervyn Warren Arranger, Bass, Composer, Drum Programming, Drums, Horn Arrangements, Keyboards, Percussion Programming, Piano, Producer, String Arrangements, Vocal Arrangement, Vocal Editing
 
Лог создания рипа
Exact Audio Copy V1.0 beta 3 from 29. August 2011
EAC extraction logfile from 16. April 2018, 18:15
The Manhattan Transfer / The Junction
Used drive  : PIONEER BD-RW   BDR-TD03   Adapter: 0  ID: 1
Read mode               : Secure
Utilize accurate stream : Yes
Defeat audio cache      : Yes
Make use of C2 pointers : No
Read offset correction                      : 667
Overread into Lead-In and Lead-Out          : No
Fill up missing offset samples with silence : Yes
Delete leading and trailing silent blocks   : No
Null samples used in CRC calculations       : Yes
Used interface                              : Native Win32 interface for Win NT & 2000
Used output format              : User Defined Encoder
Selected bitrate                : 768 kBit/s
Quality                         : High
Add ID3 tag                     : No
Command line compressor         : C:\Program Files (x86)\Exact Audio Copy\FLAC\FLAC.EXE
Additional command line options : -6 -V -T "ARTIST=%artist%" -T "TITLE=%title%" -T "ALBUM=%albumtitle%" -T "DATE=%year%" -T "TRACKNUMBER=%tracknr%" -T "GENRE=%genre%" -T "COMMENT=%comment%" -T "BAND=%albuminterpret%" -T "ALBUMARTIST=%albuminterpret%" -T "COMPOSER=%composer%" %haslyrics%--tag-from-file=LYRICS="%lyricsfile%"%haslyrics% -T "DISCNUMBER=%cdnumber%" -T "TOTALDISCS=%totalcds%" -T "TOTALTRACKS=%numtracks%" %hascover%--picture="%coverfile%"%hascover% %source% -o %dest%
TOC of the extracted CD
     Track |   Start  |  Length  | Start sector | End sector
    ---------------------------------------------------------
        1  |  0:00.00 |  4:43.44 |         0    |    21268
        2  |  4:43.44 |  3:11.32 |     21269    |    35625
        3  |  7:55.01 |  3:49.67 |     35626    |    52867
        4  | 11:44.68 |  4:24.62 |     52868    |    72729
        5  | 16:09.55 |  4:23.55 |     72730    |    92509
        6  | 20:33.35 |  4:54.01 |     92510    |   114560
        7  | 25:27.36 |  4:48.39 |    114561    |   136199
        8  | 30:16.00 |  4:56.45 |    136200    |   158444
        9  | 35:12.45 |  3:04.44 |    158445    |   172288
       10  | 38:17.14 |  5:00.64 |    172289    |   194852
Range status and errors
Selected range
     Filename C:\Users\Deris\Desktop\kpnemo.eu\ManhTr18\The Manhattan Transfer - The Junction.wav
     Peak level 100.0 %
     Extraction speed 4.4 X
     Range quality 100.0 %
     Test CRC 0046A716
     Copy CRC 0046A716
     Copy OK
No errors occurred
AccurateRip summary
Track  1  not present in database
Track  2  not present in database
Track  3  not present in database
Track  4  not present in database
Track  5  not present in database
Track  6  not present in database
Track  7  not present in database
Track  8  not present in database
Track  9  not present in database
Track 10  not present in database
None of the tracks are present in the AccurateRip database
End of status report
---- CUETools DB Plugin V2.1.3
[CTDB TOCID: jlFnWoRlM1aOZRklR9PeYMdSHFk-] disk not present in database, Submit result: database access error: The request was aborted: The request was canceled.
==== Log checksum 61397879E2A7213F0E6FE12B8ABA4478A84BEF34902EAE42CB0E90B3B5CF7932 ====
 
DR Log
foobar2000 1.3.13 / Замер динамического диапазона (DR) 1.1.1
Дата отчёта:  2018-04-16 18:47:27
--------------------------------------------------------------------------------
Анализ:   The Manhattan Transfer / The Junction
--------------------------------------------------------------------------------
DR         Пики         RMS           Продолжительность трека
--------------------------------------------------------------------------------
DR6        0.00 дБ    -7.50 дБ      4:44 01-Cantaloop (Flip Out!)
DR6       -0.25 дБ    -7.82 дБ      3:11 02-Swing Balboa (Down On Riverside)
DR6       -0.22 дБ    -8.70 дБ      3:50 03-The Man Who Sailed Around His Soul
DR7       -0.30 дБ    -8.91 дБ      4:25 04-Blues For Harry Bosch
DR5       -0.01 дБ    -7.14 дБ      4:24 05-Shake Ya Boogie (Galactic Vocal Version)
DR7       -0.12 дБ    -8.84 дБ      4:54 06-Sometimes I Do
DR7       -0.19 дБ    -9.41 дБ      4:49 07-Ugly Man
DR6       -0.18 дБ    -7.62 дБ      4:57 08-The Junction
DR6       -0.21 дБ    -8.62 дБ      3:05 09-Tequila / The Way Of The Booze
DR9       -0.28 дБ   -10.95 дБ      5:01 10-The Paradise Within (AKA Paradise Found)
--------------------------------------------------------------------------------
Количество треков: 10
Реальные значения DR: DR6
Частота:   44100 Гц
Каналов:   2
Разрядность:   16
Битрейт:   948 кбит/с
Кодек:   FLAC
================================================================================

 

09:43
1170
Нет комментариев. Ваш будет первым!