Поиск

2018 Tapir Quartet - Tapir Quartet [WEB]

2018 Tapir Quartet - Tapir Quartet [WEB]
Дата издания диска:
4 декабря 2018
Треклист:

01. Le voyage de Karagöz. 9:37
02. Looking For KHAA. 7:41
03. Sumac. 6:28
04. Polar. 5:44
05. Choum. 7:55
06. Murmurations Of Massives Owls. 6:40
07. Minotaure. 8:03
08. La nuit dans le labyrinthe. 1:56
09. Un dimanche à Tchernobyl. 9:51
10. Retour à Glumslöv. 4:22

 
DRM.log
foobar2000 1.3.8 / Dynamic Range Meter 1.1.1
log date: 2019-01-14 17:44:08
--------------------------------------------------------------------------------
Analyzed: TAPIR Quartet / TAPIR Quartet
--------------------------------------------------------------------------------
DR         Peak         RMS     Duration Track
--------------------------------------------------------------------------------
DR9       -0.15 dB   -12.19 dB      9:37 01-Le voyage de Karagöz
DR10      -0.11 dB   -13.10 dB      7:42 02-Looking For KHAA
DR8       -0.10 dB   -10.53 dB      6:29 03-Sumac
DR9       -0.10 dB   -11.32 dB      5:45 04-Polar
DR9       -0.77 dB   -10.50 dB      7:55 05-Choum
DR9       -0.10 dB   -12.11 dB      6:40 06-Murmurations Of Massives Owls
DR8       -0.10 dB    -8.77 dB      8:04 07-Minotaure
DR9       -0.19 dB   -13.83 dB      1:56 08-La nuit dans le labyrinthe
DR9       -0.20 dB   -12.95 dB      9:52 09-Un dimanche à Tchernobyl
DR9       -1.39 dB   -12.25 dB      4:22 10-Retour à Glumslöv
--------------------------------------------------------------------------------
Number of tracks:  10
Official DR value: DR9
Samplerate:        44100 Hz
Channels:          2
Bits per sample:   16
Bitrate:           642 kbps
Codec:             FLAC
================================================================================
Состав:
  • — Guilhem Fontès / piano, rhodes
  • — Thomas Bourgeois / batterie, zarb
  • — Akram Chaïb / clarinettes
  • — Philippe Guiraud / basse électrique, contrebasse

Enregistré au Pigeonnier (84750 Viens) par Florent Marly assisté de Jérôme Ferrario
Mixage et mastering par Florent Marly au studio Woldéba Records Studio (33 Bordeaux)

Жанр: Fusion / Jazz-Rock
Носитель: WEB
Год издания: 2018
Издатель (лейбл): Web Release
Страна исполнителя (группы): France
Аудиокодек: FLAC (*.flac)
Тип рипа: tracks
Битрейт аудио: lossless
Продолжительность: 68:22 min
Источник (релизер): bandcamp.com
Наличие сканов в содержимом раздачи: 

Лог проверки качества
-----------------------

DON'T MODIFY THIS FILE

-----------------------

PERFORMER: auCDtect Task Manager, ver. 1.6.0 RC1 build 1.6.0.1
Copyright (c) 2008-2010 y-soft. All rights reserved
http://y-soft.org

ANALYZER: auCDtect: CD records authenticity detector, version 0.8.2
Copyright (c) 2004 Oleg Berngardt. All rights reserved.
Copyright (c) 2004 Alexander Djourik. All rights reserved.

FILE: 01. Le voyage de Karagöz.flac
  Size: 53850210 Hash: E4F236E3D4EBD8B8B968B29E943CF96E Accuracy: -m0
  Conclusion: CDDA 100%
  Signature: 8BDE7F8B2E62586C2DA7CB6BCE42E181DCC68427
FILE: 02. Looking For KHAA.flac
  Size: 36821317 Hash: 14C5788F71A3CCFE0CCFC324E51A3756 Accuracy: -m0
  Conclusion: CDDA 100%
  Signature: 063208181B765103EF374A722A8ACE923AFF45EA
FILE: 03. Sumac.flac
  Size: 38749033 Hash: B8CB3A48638F042E6FC673D5E986A0E2 Accuracy: -m0
  Conclusion: CDDA 76%
  Signature: 32466D4EAE50102155438253FA894F8CCDB77FB8
FILE: 04. Polar.flac
  Size: 34637976 Hash: 93DCAB55B26EAFEF3EBDAA5CE7E1EA45 Accuracy: -m0
  Conclusion: CDDA 100%
  Signature: 21AAEF6EF046AF07CD0F70D2903D22435570DA2B
FILE: 05. Choum.flac
  Size: 44052810 Hash: 39DBDD2AF89299FDDE0F0911DCE4D982 Accuracy: -m0
  Conclusion: CDDA 99%
  Signature: AE9A7155421DD064334BA2275A20866644E83A2B
FILE: 06. Murmurations Of Massives Owls.flac
  Size: 35055005 Hash: 9E09A1ED27A410EE09E2B3A7A66ED9AB Accuracy: -m0
  Conclusion: CDDA 86%
  Signature: 48C9EEA6C28638EACF5EE5AD6C1FF9B72B09C686
FILE: 07. Minotaure.flac
  Size: 47267595 Hash: B1DECC4686913267572E42E3075142CF Accuracy: -m0
  Conclusion: CDDA 62%
  Signature: 50E32AC2842DA671234ACD1CBD7D3331E8EB15DF
FILE: 08. La nuit dans le labyrinthe.flac
  Size: 8926780 Hash: E4F268F9C88D6D24DDC5F72B1EB466A5 Accuracy: -m0
  Conclusion: CDDA 100%
  Signature: A4330722AE04B04BCBAB5C53E9C47CB659D25771
FILE: 09. Un dimanche à Tchernobyl.flac
  Size: 50322818 Hash: D699075FB2BE026C195D298593C32695 Accuracy: -m0
  Conclusion: CDDA 100%
  Signature: 6B88FA2B53C2F8128C0FDC17DA851CDC8C796834
FILE: 10. Retour à Glumslöv.flac
  Size: 21077430 Hash: 80D4107212556D498329E3EBDFCE2FBA Accuracy: -m0
  Conclusion: CDDA 62%
  Signature: 99142FE1FDD5EFBCDB1F981757B7669E36A8D630
По всем вопросам пишите личное сообщение пользователю M0p94ok.
05:24
415
Комментарий удален
23:15
Благодарю, исправил.