Поиск

2018 Super Soul Bros. - Motherload {Fossil} [24-44.1]

2018 Super Soul Bros. - Motherload {Fossil} [24-44.1]
Стили:
Издатель (лейбл):
Состав:
  • Robbie Benson — Piano, clavinet, electric piano, organ, synth-bass, bebot (track 1, 5, 13), scratching (track 11)
  • Brian Sheu — Guitars, bass guitar (track 5,8), violins (track 9,12), synthesizer (track 05,12)
  • Chris Haman — Drums, percussion
  • Alex Popoff — Tenor saxophone, EWI
  • Christian Manzana — Trombone
  • Bill Smolik — Trumpet

Also Featuring

  • Anthony Franceschi — Percussion
  • Mega Ran — Vocals (track 7)
  • Neiman Chen — Double bass (track 9)
  • Collette Larson-Benson — Vocals (track 15)

Формат записи/Источник записи: [TR24][OF]
Наличие водяных знаков: Нет
Год издания/переиздания диска: 2018
Жанр: , Fusion, Soul-Jazz
Издатель (лейбл): Fossil Records
Продолжительность: 1:16:45
Наличие сканов в содержимом раздачи: Нет
Источник (релизер): bandcamp
Контейнер: FLAC (*.flac)
Тип рипа: tracks
Разрядность: 24/44,1
Формат: PCM
Количество каналов: 2.0

Треклист:
01. Attract Mode 02:43
02. Mom's Hometown 03:00
03. Bus 04:16
04. Fourside 04:56
05. Mole Mines 04:17
06. Pollyanna 06:36
07. Ness's Nightmare (Featuring Mega Ran) 03:18
08. Winters 06:17
09. Snowman 06:57
10. Sunshine Forest 06:32
11. Sanctuary Guardian (Featuring Monz) 04:32
12. Samba De Combo 07:04
13. Otherworldly Foe 03:49
14. Good Friends, Bad Friends 03:58
15. Smiles And Tears 05:21
16. Magypsy Party 02:59

 
DR Log
foobar2000 1.1.10 / Dynamic Range Meter 1.1.1
log date: 2018-01-20 17:12:02
--------------------------------------------------------------------------------
Analyzed: Super Soul Bros / Motherlode
--------------------------------------------------------------------------------
DR         Peak         RMS     Duration Track
--------------------------------------------------------------------------------
DR10       0.00 dB   -12.83 dB      2:44 ?-Attract Mode
DR10       0.00 dB   -11.84 dB      3:00 ?-Mom's Hometown
DR9       -0.01 dB   -10.69 dB      4:17 ?-Bus
DR9        0.00 dB   -10.89 dB      4:57 ?-Fourside
DR10       0.00 dB   -11.49 dB      4:18 ?-Mole Mines
DR8        0.00 dB   -10.37 dB      6:37 ?-Pollyanna
DR10       0.00 dB   -11.06 dB      3:19 ?-Ness's Nightmare (Featuring Mega Ran)
DR8        0.00 dB   -11.43 dB      6:18 ?-Winters
DR12       0.00 dB   -14.05 dB      6:58 ?-Snowman
DR10       0.00 dB   -11.95 dB      6:32 ?-Sunshine Forest
DR10       0.00 dB   -11.15 dB      4:33 ?-Sanctuary Guardian (Featuring Monz)
DR9        0.00 dB   -10.37 dB      7:04 ?-Samba De Combo
DR9        0.00 dB   -10.71 dB      3:49 ?-Otherworldly Foe
DR10       0.00 dB   -11.44 dB      3:58 ?-Good Friends, Bad Friends
DR9        0.00 dB   -10.88 dB      5:22 ?-Smiles And Tears
DR10       0.00 dB   -12.12 dB      3:00 ?-Magypsy Party
--------------------------------------------------------------------------------
Number of tracks:  16
Official DR value: DR10
Samplerate:        44100 Hz
Channels:          2
Bits per sample:   24
Bitrate:           1607 kbps
Codec:             FLAC
================================================================================

 

Приватный:
Нет (DHT включён)
Размер:
901.79 Мб (945,597,123 байт) » файлов: 17
Участники:
1 раздают, 0 качают (1 участников всего)
Внешние участники:
--- [ Обновить ]
22:58
55
RSS
Нет комментариев. Ваш будет первым!