Поиск

2018 Steve Tyrell - A Song For You {New Design-East West} [24-96]

2018 Steve Tyrell - A Song For You {New Design-East West} [24-96]
Стили:

Формат записи/Источник записи: [TR24][OF]
Наличие водяных знаков: Нет
Год издания/переиздания диска: 2018
Издатель (лейбл): New Design - East West
Продолжительность: 47:05
Наличие сканов в содержимом раздачи: Front
Источник (релизер): qobuz
Контейнер: FLAC (*.flac)
Тип рипа: tracks
Разрядность: 24/96
Формат: PCM
Количество каналов: 2.0

Треклист:
01. Someone Like You 03:52
02. Come Rain Or Come Shine 04:42
03. Try A Little Tenderness 04:18
04. A Song For You 04:18
05. Sunday Kind Of Love 03:31
06. When I Fall In Love 04:13
07. Come Live With Me 04:07
08. You Are So Beautiful 03:45
09. Them There Eyes 02:56
10. To Be Loved 04:05
11. The Good Life 03:02
12. Always On My Mind 04:16

 
Лог проверки качества
foobar2000 1.3.7 / Dynamic Range Meter 1.1.1
log date: 2018-02-09 02:47:13
--------------------------------------------------------------------------------
Analyzed: Steve Tyrell / A Song For You
--------------------------------------------------------------------------------
DR         Peak         RMS     Duration Track
--------------------------------------------------------------------------------
DR10       0.00 dB   -12.35 dB      3:52 01-Someone Like You
DR13       0.00 dB   -15.92 dB      4:43 02-Come Rain Or Come Shine
DR12      -0.14 dB   -15.41 dB      4:19 03-Try A Little Tenderness
DR11       0.00 dB   -14.08 dB      4:18 04-A Song For You
DR12       0.00 dB   -14.38 dB      3:31 05-Sunday Kind Of Love
DR12       0.00 dB   -15.79 dB      4:13 06-When I Fall In Love
DR12       0.00 dB   -15.84 dB      4:07 07-Come Live With Me
DR7       -4.21 dB   -14.99 dB      3:45 08-You Are So Beautiful
DR12       0.00 dB   -14.53 dB      2:57 09-Them There Eyes
DR11       0.00 dB   -13.44 dB      4:05 10-To Be Loved
DR11       0.00 dB   -13.45 dB      3:02 11-The Good Life
DR12       0.00 dB   -15.18 dB      4:16 12-Always On My Mind
--------------------------------------------------------------------------------
Number of tracks:  12
Official DR value: DR11
Samplerate:        96000 Hz
Channels:          2
Bits per sample:   24
Bitrate:           2737 kbps
Codec:             FLAC
================================================================================

 

Приватный:
Нет (DHT включён)
Размер:
915.42 Мб (959,883,227 байт) » файлов: 14
Участники:
0 раздают, 0 качают (0 участников всего)
Внешние участники:
--- [ Обновить ]
17:24
60
RSS
Нет комментариев. Ваш будет первым!