Поиск

2018 Soil & “Pimp” Sessions - Dapper {Victor} [24-96]

2018 Soil & “Pimp” Sessions - Dapper {Victor} [24-96]
Стили:
Издатель (лейбл):
Треклист:

Формат записи/Источник записи: [TR24][OF]
Наличие водяных знаков: Нет
Год издания/переиздания диска: 2018
Продолжительность: 54:36
Наличие сканов в содержимом раздачи: Только обложка альбома
Контейнер: FLAC (*.flac)
Тип рипа: tracks
Разрядность: 24/96
Формат: PCM
Количество каналов: 2.0
Источник: mora.jp

Треклист:
01. A New Day (3:58)
02. Heaven On Earth (4:08)
03. Explorer (4:06)
04. Comrade (4:36)
05. Deform Reform (4:44)
06. Bond (2:52)
07. Interlude (0:40)
08. Yume Makase (3:49)
09. Drivin' (3:43)
10. Dusk (3:34)
11. Glitch (4:56)
12. Pride Fish Ball (6:32)
13. Method (2:22)
14. Drifter (4:36)

 
Лог проверки качества
foobar2000 1.3.9 / Dynamic Range Meter 1.1.1
log date: 2018-06-26 18:30:33
--------------------------------------------------------------------------------
Analyzed: Soil & "Pimp" Sessions / Dapper
--------------------------------------------------------------------------------
DR         Peak         RMS     Duration Track
--------------------------------------------------------------------------------
DR8        0.00 dB    -8.81 dB      3:58 01-A New Day
DR7        0.00 dB    -8.52 dB      4:08 02-Heaven On Earth
DR7        0.00 dB    -8.36 dB      4:06 03-Explorer
DR6        0.00 dB    -7.15 dB      4:36 04-Comrade
DR6        0.00 dB    -7.36 dB      4:44 05-Deform Reform
DR8       -0.05 dB    -9.29 dB      2:52 06-Bond
DR26      -0.08 dB   -31.72 dB      0:40 07-Interlude
DR6       -0.07 dB    -7.09 dB      3:49 08-Yume Makase
DR7        0.00 dB    -8.66 dB      3:43 09-Drivin'
DR9       -0.10 dB   -11.93 dB      3:34 10-Dusk
DR7        0.00 dB    -9.38 dB      4:56 11-Glitch
DR5       -0.30 dB    -7.63 dB      6:32 12-Pride Fish Ball
DR8        0.00 dB    -9.92 dB      2:22 13-Method
DR7       -0.02 dB    -9.16 dB      4:36 14-Drifter
--------------------------------------------------------------------------------
Number of tracks:  14
Official DR value: DR8
Samplerate:        96000 Hz
Channels:          2
Bits per sample:   24
Bitrate:           2814 kbps
Codec:             FLAC
================================================================================

 

Download available for power users only.
12:11
783
Нет комментариев. Ваш будет первым!