Поиск

2018 Sarah Lancman - À contretemps {Jazz Eleven} [24-96]

2018 Sarah Lancman - À contretemps {Jazz Eleven} [24-96]
Стили:
Треклист:

Формат записи/Источник записи: [TR24][OF]
Наличие водяных знаков: Нет
Год издания/переиздания диска: 2018
Издатель (лейбл): Jazz Eleven
Продолжительность: 00:44:03
Наличие сканов в содержимом раздачи: Front
Источник (релизер): 7digital
Контейнер: FLAC (*.flac)
Тип рипа: tracks
Разрядность: 24/96
Формат: PCM
Количество каналов: 2.0

Треклист:
01. Don't Lose Me
02. Ça n'a plus d'importance
03. I Want Your Love
04. On s'est aimé
05. Wrong or Right? (Sarah's Blues)
06. Love Me Just Your Way
07. Tout bas
08. À contretemps
09. Choro pour les amants éternels
10. Conjugaison amoureuse
11. On s'est aimé (Aishiatta koto o)

 
Лог проверки качества
foobar2000 1.1.10 / Dynamic Range Meter 1.1.1
log date: 2018-01-19 13:04:59
--------------------------------------------------------------------------------
Analyzed: Sarah Lancman / À contretemps
--------------------------------------------------------------------------------
DR         Peak         RMS     Duration Track
--------------------------------------------------------------------------------
DR10      -0.60 dB   -12.94 dB      3:30 ?-Don't Lose Me
DR11      -0.60 dB   -14.47 dB      4:37 ?-Ça n'a plus d'importance
DR10      -0.60 dB   -12.99 dB      4:41 ?-I Want Your Love
DR11      -2.22 dB   -16.01 dB      3:48 ?-On s'est aimé
DR10      -0.60 dB   -12.18 dB      3:49 ?-Wrong or Right? (Sarah's Blues)
DR12      -2.06 dB   -16.55 dB      6:20 ?-Love Me Just Your Way
DR12      -0.60 dB   -14.85 dB      4:37 ?-Tout bas
DR12      -0.65 dB   -16.44 dB      3:52 ?-À contretemps
DR12      -0.60 dB   -14.10 dB      2:14 ?-Choro pour les amants éternels
DR10      -1.31 dB   -15.15 dB      2:48 ?-Conjugaison amoureuse
DR11      -2.07 dB   -16.16 dB      3:47 ?-On s'est aimé (Aishiatta koto o)
--------------------------------------------------------------------------------
Number of tracks:  11
Official DR value: DR11
Samplerate:        96000 Hz
Channels:          2
Bits per sample:   24
Bitrate:           2756 kbps
Codec:             FLAC
================================================================================

 

Приватный:
Нет (DHT включён)
Размер:
894.64 Мб (938,095,905 байт) » файлов: 13
Участники:
6 раздают, 0 качают (6 участников всего)
Внешние участники:
3 раздают, 1 качают (4 участников всего) [ Обновить ]
10:45
78
Нет комментариев. Ваш будет первым!