Поиск

2018 Ruud Breuls, Simon Rigter Quintet - Wild Man Blues Plays Louis Armstrong {Sound Liaison} [DXD 24-352]

2018 Ruud Breuls, Simon Rigter Quintet - Wild Man Blues Plays Louis Armstrong {Sound Liaison} [DXD 24-352]
Издатель (лейбл):
Треклист:

01 - On The Sunny Side Of The Street (7:13)
02 - Basin Street Blues (7:03)
03 - Wild Man Blues (6:47)
04 - St. Louis Blues (8:25)
05 - Big Butter And Egg Man (5:31)
06 - Sleepy Time Down South (9:00)
07 - Struttin' With Some Barbecue (5:04)
08 - What A Wonderful World (3:56)

 
Тех. инфо

Original recording format DXD 352kHz
Music arranged by Karel Boehlee
Produced by Sound Liaison and Ruud Breuls
Recording by Frans de Rond for Sound Liaison
Mixing and mastering by Frans de Rond and Peter Bjørnild (mix assistent)
Recorded at MCO, Studio 2, Hilversum, The Netherlands, on 2016
Used equipment:
Microphones:
Main system: Schoeps MK5 (AB)
Ruud: Josephson C700
Simon: Josephson C716
Karel: Josephson C617 (2x)
Jos: Josephson C700
Marcel: Schoeps MK2 (overheads) - Audix D6 (basdrum)
Micpre's: Merging Horus
Microphone cables: AudioQuest Yokon
Speakers: TAD CE-1
Amplifier: Moon 760A
Mixing headphones: Sennheiser HD800 / AKG 702
All power cables, interlinks and power conditioners by AudioQuest.

Лог проверки качества
foobar2000 1.4.1 / Dynamic Range Meter 1.1.1
log date: 2018-12-26 03:07:19

--------------------------------------------------------------------------------
Analyzed: Ruud Breuls, Simon Rigter Quintet / Wild Man Blues (Plays Louis Armstrong)
--------------------------------------------------------------------------------

DR         Peak         RMS     Duration Track
--------------------------------------------------------------------------------
DR15      -0.30 dB   -17.64 dB      7:13 01-On The Sunny Side Of The Street
DR13      -3.46 dB   -20.61 dB      7:03 02-Basin Street Blues
DR15      -0.34 dB   -17.96 dB      6:47 03-Wild Man Blues
DR14      -0.48 dB   -17.84 dB      8:25 04-St. Louis Blues
DR16      -0.25 dB   -18.46 dB      5:31 05-Big Butter And Egg Man
DR13      -0.83 dB   -18.93 dB      9:00 06-Sleepy Time Down South
DR16      -0.30 dB   -18.07 dB      5:04 07-Struttin' With Some Barbecue
DR12      -4.72 dB   -20.38 dB      3:56 08-What A Wonderful World
--------------------------------------------------------------------------------

Number of tracks:  8
Official DR value: DR14

Samplerate:        352800 Hz
Channels:          2
Bits per sample:   24
Bitrate:           16934 kbps
Codec:             PCM
================================================================================
Скриншот спектра частот
2018 Ruud Breuls, Simon Rigter Quintet - Wild Man Blues Plays Louis Armstrong {Sound Liaison} [DXD 24-352] 02018 Ruud Breuls, Simon Rigter Quintet - Wild Man Blues Plays Louis Armstrong {Sound Liaison} [DXD 24-352] 12018 Ruud Breuls, Simon Rigter Quintet - Wild Man Blues Plays Louis Armstrong {Sound Liaison} [DXD 24-352] 2
Приватный:
Нет (DHT включён)
Размер:
3.00 Гб (3,218,102,934 байт) » файлов: 10
Участники:
0 раздают, 0 качают (0 участников всего)
Внешние участники:
10 раздают, 3 качают (13 участников всего) [ Обновить ]
Никого нет на раздаче - пишите личное сообщение M0p94ok
No seeders - write personal message to M0p94ok
22:55
96
Нет комментариев. Ваш будет первым!