Поиск

2018 Mondo Grosso - Attune Detune {Cutting Edge ‎CTCR-14939} [24-88,2]

2018 Mondo Grosso - Attune Detune {Cutting Edge ‎CTCR-14939} [24-88,2]
Треклист:

1. One Temperature [Vocal:Big-O]
2. TURN IT UP [Vocal:大橋トリオ]
3. 偽りのシンパシー[Vocal:アイナ・ジ・エンド(BiSH)]
4. KEMURI [Vocal:ACO]
5. - Attune / Detune -
6. KEMURI (Retune) [Vocal:RHYME]
7. ERASER (FRF07 Rearrangement) [Vocal:二神アンヌ]
8. ラビリンス (Thousand Tears Orchestra Instrumental)
9. 惑星タントラ

Формат записи/Источник записи: [TR24][OF]
Наличие водяных знаков: Нет
Год издания/переиздания диска: 2018
Жанр: Electronic, Jazz, House
Издатель (лейбл): cutting edge
Продолжительность: 37:54
Наличие сканов в содержимом раздачи: Front
Источник (релизер): ototoy
Контейнер: FLAC (*.flac)
Тип рипа: tracks
Разрядность: 24/88,2
Формат: PCM
Количество каналов: 2.0

Лог проверки качества
foobar2000 1.1.10 / Dynamic Range Meter 1.1.1
log date: 2018-04-09 13:24:35

--------------------------------------------------------------------------------
Analyzed: MONDO GROSSO / Attune / Detune
--------------------------------------------------------------------------------

DR         Peak         RMS     Duration Track
--------------------------------------------------------------------------------
DR7       -0.22 dB    -9.18 dB      5:05 ?-One Temperature[Vocal:Big-O]
DR7       -0.42 dB    -9.40 dB      5:10 ?-TURN IT UP[Vocal:大橋トリオ]
DR7       -0.42 dB    -8.88 dB      4:48 ?-偽りのシンパシー(Album Mix)[Vocal:アイナ・ジ・エンド(BiSH)]
DR7       -0.42 dB    -8.36 dB      3:33 ?-KEMURI[Vocal:ACO]
DR13      -3.72 dB   -22.81 dB      0:22 ?-― Attune / Detune ―
DR7       -0.41 dB    -8.84 dB      4:04 ?-KEMURI (Retune)[Vocal:RHYME]
DR6       -0.41 dB    -9.64 dB      4:44 ?-ラビリンス (Thousand Tears Orchestra Instrumental)
DR12      -0.44 dB   -15.45 dB      4:41 ?-ERASER (FRF 2017 Rearrangement)[Vocal:二神アンヌ]
DR7       -0.42 dB    -9.26 dB      5:26 ?-惑星タントラ/やくしまるえつこ
--------------------------------------------------------------------------------

Number of tracks:  9
Official DR value: DR8

Samplerate:        88200 Hz
Channels:          2
Bits per sample:   24
Bitrate:           3254 kbps
Codec:             FLAC
================================================================================
По всем вопросам пишите личное сообщение пользователю M0p94ok.
01:23
458
Нет комментариев. Ваш будет первым!