Поиск

2018 Mike Vax & Ron Romm - Collaboration {Summit DCD 713} [CD]

2018 Mike Vax & Ron Romm - Collaboration {Summit DCD 713} [CD]
Стили:
Издатель (лейбл):
Треклист:
Носитель: CD
Страна-производитель диска (релиза): США
Год издания: 2018
Номер по каталогу: DCD 713
Аудиокодек: FLAC (*.flac)
Тип рипа: tracks+.cue
Битрейт аудио: lossless
Продолжительность: 55:10
Источник (релизер): PeepingTomPayne
Наличие сканов в содержимом раздачи: сетевые
Треклист:
01. The Shadow of Your Smile (Mandel) - 7:24
02. Cornet Chop Suey (Armstrong) - 3:31
03. My Pal Yachee (Leoncavallo) - 3:11
04. I Remember Clifford (Golson) - 3:40
05. Up Jumped Spring (Hubbard) - 3:04
06. Haydn Trumpet Concerto, Mvt. Two Andante (Haydn) - 3:46
07. Collaboration (Kenton-Rugolo) - 4:55
08. Lenny Leaps Out (Niehaus) - 3:15
09. The Brave Matador (Guscan) - 3:23
10. Just a Closer Walk with Thee (Trad.) - 5:02
11. The Summer Knows (Theme from Summer of '42) (Legrand) - 6:14
12. Sweet Emma (Adderley) - 7:45
Состав:
Mike Vax, Ron Romm - trumpet, flugelhorn
Dr. David Hickman - trumpet (#9)
Tony Vacca (#1,12) - flute, tenor saxophone
Scott Petersen - trombone (#7,12)
Jack Petersen - guitar
Ioannis Goudelis - piano, keyboards
Selwyn Reams - bass
Cleve Huff - drums
Avis Romm (#6,9,11), Joel Robin (#12) - piano
Recorded at The Nash Jazz Club, Phoenix, AZ on August 14, 2017.
 
Лог создания рипа
Exact Audio Copy V1.3 from 2. September 2016
EAC extraction logfile from 3. June 2018, 21:55
Mike Vax & Ron Romm / Collaboration
Used drive  : hp      DVDRW  DU8A6SH   Adapter: 1  ID: 0
Read mode               : Secure
Utilize accurate stream : Yes
Defeat audio cache      : Yes
Make use of C2 pointers : No
Read offset correction                      : 6
Overread into Lead-In and Lead-Out          : No
Fill up missing offset samples with silence : Yes
Delete leading and trailing silent blocks   : No
Null samples used in CRC calculations       : Yes
Used interface                              : Native Win32 interface for Win NT & 2000
Gap handling                                : Appended to previous track
Used output format              : User Defined Encoder
Selected bitrate                : 128 kBit/s
Quality                         : High
Add ID3 tag                     : No
Command line compressor         : C:\Program Files (x86)\Exact Audio Copy\Flac\flac.exe
Additional command line options : -8 -e -p -V -T "ARTIST=%artist%" -T "TITLE=%title%" -T "ALBUM=%albumtitle%" -T "DATE=%year%" -T "TRACKNUMBER=%tracknr%" -T "GENRE=%genre%" -T "PERFORMER=%albuminterpret%" -T "COMPOSER=%composer%" %haslyrics%--tag-from-file=LYRICS="%lyricsfile%"%haslyrics% -T "ALBUMARTIST=%albumartist%" -T "DISCNUMBER=%cdnumber%" -T "TOTALDISCS=%totalcds%" -T "TOTALTRACKS=%numtracks%" -T "COMMENT=%comment%" %source% -o %dest%
TOC of the extracted CD
     Track |   Start  |  Length  | Start sector | End sector
    ---------------------------------------------------------
        1  |  0:00.00 |  7:24.29 |         0    |    33328
        2  |  7:24.29 |  3:31.24 |     33329    |    49177
        3  | 10:55.53 |  3:10.62 |     49178    |    63489
        4  | 14:06.40 |  3:39.40 |     63490    |    79954
        5  | 17:46.05 |  3:03.63 |     79955    |    93742
        6  | 20:49.68 |  3:46.26 |     93743    |   110718
        7  | 24:36.19 |  4:54.52 |    110719    |   132820
        8  | 29:30.71 |  3:14.67 |    132821    |   147437
        9  | 32:45.63 |  3:22.39 |    147438    |   162626
       10  | 36:08.27 |  5:01.46 |    162627    |   185247
       11  | 41:09.73 |  6:14.31 |    185248    |   213328
       12  | 47:24.29 |  7:44.51 |    213329    |   248179
Track  1
     Filename C:\EAC Rips\Mike Vax & Ron Romm - Collaboration (2018) [FLAC]\01 - The Shadow of Your Smile.wav
     Pre-gap length  0:00:02.00
     Peak level 97.3 %
     Extraction speed 1.3 X
     Track quality 100.0 %
     Test CRC F6E82727
     Copy CRC F6E82727
     Track not present in AccurateRip database
     Copy OK
Track  2
     Filename C:\EAC Rips\Mike Vax & Ron Romm - Collaboration (2018) [FLAC]\02 - Cornet Chop Suey.wav
     Pre-gap length  0:00:02.00
     Peak level 75.5 %
     Extraction speed 1.3 X
     Track quality 100.0 %
     Test CRC 0147FA0D
     Copy CRC 0147FA0D
     Track not present in AccurateRip database
     Copy OK
Track  3
     Filename C:\EAC Rips\Mike Vax & Ron Romm - Collaboration (2018) [FLAC]\03 - My Pal Yachee.wav
     Pre-gap length  0:00:03.00
     Peak level 99.9 %
     Extraction speed 1.4 X
     Track quality 100.0 %
     Test CRC 23813448
     Copy CRC 23813448
     Track not present in AccurateRip database
     Copy OK
Track  4
     Filename C:\EAC Rips\Mike Vax & Ron Romm - Collaboration (2018) [FLAC]\04 - I Remember Clifford.wav
     Pre-gap length  0:00:03.00
     Peak level 99.9 %
     Extraction speed 1.5 X
     Track quality 100.0 %
     Test CRC F2A2D3AE
     Copy CRC F2A2D3AE
     Track not present in AccurateRip database
     Copy OK
Track  5
     Filename C:\EAC Rips\Mike Vax & Ron Romm - Collaboration (2018) [FLAC]\05 - Up Jumped Spring.wav
     Pre-gap length  0:00:08.06
     Peak level 99.9 %
     Extraction speed 1.5 X
     Track quality 100.0 %
     Test CRC ABA7B44B
     Copy CRC ABA7B44B
     Track not present in AccurateRip database
     Copy OK
Track  6
     Filename C:\EAC Rips\Mike Vax & Ron Romm - Collaboration (2018) [FLAC]\06 - Haydn Trumpet Concerto, Mvt. Two Andante.wav
     Pre-gap length  0:00:03.00
     Peak level 96.5 %
     Extraction speed 1.7 X
     Track quality 100.0 %
     Test CRC 94430E7F
     Copy CRC 94430E7F
     Track not present in AccurateRip database
     Copy OK
Track  7
     Filename C:\EAC Rips\Mike Vax & Ron Romm - Collaboration (2018) [FLAC]\07 - Collaboration.wav
     Pre-gap length  0:00:03.00
     Peak level 88.4 %
     Extraction speed 1.8 X
     Track quality 100.0 %
     Test CRC 3BD335D7
     Copy CRC 3BD335D7
     Track not present in AccurateRip database
     Copy OK
Track  8
     Filename C:\EAC Rips\Mike Vax & Ron Romm - Collaboration (2018) [FLAC]\08 - Lenny Leaps Out.wav
     Pre-gap length  0:00:03.00
     Peak level 99.9 %
     Extraction speed 1.5 X
     Track quality 99.9 %
     Test CRC 93893148
     Copy CRC 93893148
     Track not present in AccurateRip database
     Copy OK
Track  9
     Filename C:\EAC Rips\Mike Vax & Ron Romm - Collaboration (2018) [FLAC]\09 - The Brave Matador.wav
     Pre-gap length  0:00:02.97
     Peak level 97.9 %
     Extraction speed 1.6 X
     Track quality 99.9 %
     Test CRC FF11DFE5
     Copy CRC FF11DFE5
     Track not present in AccurateRip database
     Copy OK
Track 10
     Filename C:\EAC Rips\Mike Vax & Ron Romm - Collaboration (2018) [FLAC]\10 - Just a Closer Walk With Thee.wav
     Pre-gap length  0:00:03.00
     Peak level 87.0 %
     Extraction speed 2.0 X
     Track quality 100.0 %
     Test CRC 637240C2
     Copy CRC 637240C2
     Track not present in AccurateRip database
     Copy OK
Track 11
     Filename C:\EAC Rips\Mike Vax & Ron Romm - Collaboration (2018) [FLAC]\11 - The Summer Knows (Theme from Summer of '42).wav
     Pre-gap length  0:00:02.00
     Peak level 96.7 %
     Extraction speed 2.2 X
     Track quality 100.0 %
     Test CRC FF2F74E4
     Copy CRC FF2F74E4
     Track not present in AccurateRip database
     Copy OK
Track 12
     Filename C:\EAC Rips\Mike Vax & Ron Romm - Collaboration (2018) [FLAC]\12 - Sweet Emma.wav
     Pre-gap length  0:00:03.00
     Peak level 94.1 %
     Extraction speed 2.4 X
     Track quality 100.0 %
     Test CRC A3E77204
     Copy CRC A3E77204
     Track not present in AccurateRip database
     Copy OK
None of the tracks are present in the AccurateRip database
No errors occurred
End of status report
---- CUETools DB Plugin V2.1.6
[CTDB TOCID: nOQQDnDWn4EVamQ4rguAMneCDsY-] disk not present in database
Submit result: nOQQDnDWn4EVamQ4rguAMneCDsY- has been uploaded
==== Log checksum 5A2C0EDE899CC7685BF10605791A8B426163331F7299CE81388A9D4B2CF5616C ====
 
 
Содержание индексной карты (.CUE)
REM GENRE Jazz
REM DATE 2018
REM DISCID B60CED0C
REM COMMENT "ExactAudioCopy v1.3"
PERFORMER "Mike Vax & Ron Romm"
TITLE "Collaboration"
FILE "01 - The Shadow of Your Smile.wav" WAVE
  TRACK 01 AUDIO
    TITLE "The Shadow of Your Smile"
    PERFORMER "Mike Vax & Ron Romm"
    INDEX 01 00:00:00
  TRACK 02 AUDIO
    TITLE "Cornet Chop Suey"
    PERFORMER "Mike Vax & Ron Romm"
    INDEX 00 07:22:29
FILE "02 - Cornet Chop Suey.wav" WAVE
    INDEX 01 00:00:00
  TRACK 03 AUDIO
    TITLE "My Pal Yachee"
    PERFORMER "Mike Vax & Ron Romm"
    INDEX 00 03:28:24
FILE "03 - My Pal Yachee.wav" WAVE
    INDEX 01 00:00:00
  TRACK 04 AUDIO
    TITLE "I Remember Clifford"
    PERFORMER "Mike Vax & Ron Romm"
    INDEX 00 03:07:62
FILE "04 - I Remember Clifford.wav" WAVE
    INDEX 01 00:00:00
  TRACK 05 AUDIO
    TITLE "Up Jumped Spring"
    PERFORMER "Mike Vax & Ron Romm"
    INDEX 00 03:31:35
FILE "05 - Up Jumped Spring.wav" WAVE
    INDEX 01 00:00:00
  TRACK 06 AUDIO
    TITLE "Haydn Trumpet Concerto, Mvt. Two Andante"
    PERFORMER "Mike Vax & Ron Romm"
    INDEX 00 03:00:63
FILE "06 - Haydn Trumpet Concerto, Mvt. Two Andante.wav" WAVE
    INDEX 01 00:00:00
  TRACK 07 AUDIO
    TITLE "Collaboration"
    PERFORMER "Mike Vax & Ron Romm"
    INDEX 00 03:43:26
FILE "07 - Collaboration.wav" WAVE
    INDEX 01 00:00:00
  TRACK 08 AUDIO
    TITLE "Lenny Leaps Out"
    PERFORMER "Mike Vax & Ron Romm"
    INDEX 00 04:51:52
FILE "08 - Lenny Leaps Out.wav" WAVE
    INDEX 01 00:00:00
  TRACK 09 AUDIO
    TITLE "The Brave Matador"
    PERFORMER "Mike Vax & Ron Romm"
    INDEX 00 03:11:69
FILE "09 - The Brave Matador.wav" WAVE
    INDEX 01 00:00:00
  TRACK 10 AUDIO
    TITLE "Just a Closer Walk with Thee"
    PERFORMER "Mike Vax & Ron Romm"
    INDEX 00 03:19:39
FILE "10 - Just a Closer Walk with Thee.wav" WAVE
    INDEX 01 00:00:00
  TRACK 11 AUDIO
    TITLE "The Summer Knows (Theme from Summer of '42)"
    PERFORMER "Mike Vax & Ron Romm"
    INDEX 00 04:59:46
FILE "11 - The Summer Knows (Theme from Summer of '42).wav" WAVE
    INDEX 01 00:00:00
  TRACK 12 AUDIO
    TITLE "Sweet Emma"
    PERFORMER "Mike Vax & Ron Romm"
    INDEX 00 06:11:31
FILE "12 - Sweet Emma.wav" WAVE
    INDEX 01 00:00:00
 
 
Об альбоме (сборнике)
A collaboration in the making for over 45 years!..Two incredibly gifted and acclaimed trumpet veterans finally together! Mike, a Stan Kenton Orchestra alum, and Ron, a Canadian Brass alum finally have gotten together to do this project after 45 years of friendship and talk! The talk is over-The project incredible! Joined by a first-class rhythm section and special guests, an impressive outing!
Mike has also performed and/or recorded with a ‘laundry list’ of jazz greats. He has appeared as guest lead trumpet and soloist with symphony pops orchestras around the world. As a recording musician, he has performed on more than 75 albums, including 20 under his own name.
Romm, a performer who has appeared worldwide on the stages of most major concert venues, music festivals, and international music conferences, is widely acknowledged as one of the pre-eminent trumpeters and clinicians of today. At eighteen he was already a veteran freelance trumpeter in Los Angeles, performing regularly with the Los Angeles Philharmonic Orchestra and the Los Angeles Brass Quintet.
In New York City, Mr. Romm established himself as a top freelance musician performing with every type and style of musical organization from the New York Brass Society to the New York Philharmonic to the Radio City Music Hall Symphony Orchestra to Broadway shows.
In 1971, Ronald Romm joined the newly formed Canadian Brass, which later established itself as the premiere brass ensemble in the world. In June of 2000, he retired from the group after participating in over 4,500 concerts.
Приватный:
Нет (DHT включён)
Размер:
300.10 Мб (314,682,151 байт) » файлов: 20
Участники:
0 раздают, 0 качают (0 участников всего)
Внешние участники:
1 раздают, 0 качают (1 участников всего) [ Обновить ]
Нет сидеров - пишите личное сообщение M0p94ok. Не нравятся торренты? Участники группы Pro-jazz Club могут заказать прямую ссылку на скачивание из облака.
No seeders - write a personal message to M0p94ok. Don't like torrents? Members of Pro-jazz Club group can order a direct download link from the cloud.
22:51
81
Нет комментариев. Ваш будет первым!