Поиск

2018 Michael e - Lush {Michael e} [CD]

2018 Michael e - Lush {Michael e} [CD]
Стили:
Носитель:
CD
Тип рипа:
tracks+.cue
Аудиокодек:
FLAC (*.flac)
Битрейт аудио:
lossless
Время звучания:
01:09:56
Наличие сканов:
да

01 Infinite Beauty 4:53
02 Tokyo Morning (Feat. Jirka) 5:18
03 Speak To The Others 4:54
04 Masala (Feat. DJ Brahms) 5:22
05 Raindance 5:37
06 Cotton Blossom 5:34
07 Laxmi 4:45
08 After The Storm 5:54
09 Mantra (Feat. Jirka) 5:26
10 It's Time 6:03
11 Reccuring Dream 5:56
12 Letting Go 5:24
13 The End Of The Road 4:47

Состав:
Лог создания рипа
Exact Audio Copy V1.3 from 2. September 2016
Отчёт EAC об извлечении, выполненном 19. октября 2018, 18:32
Michael E / Lush
Дисковод: PIONEER BD-RW   BDR-211M   Adapter: 1  ID: 0
Режим чтения                 : Достоверность
Использование точного потока : Да
Отключение кэша аудио        : Да
Использование указателей C2  : Нет
Коррекция смещения при чтении                     : 667
Способность читать области Lead-in и Lead-out     : Нет
Заполнение пропущенных сэмплов тишиной            : Да
Удаление блоков с тишиной в начале и конце        : Нет
При вычислениях CRC использовались нулевые сэмплы : Да
Интерфейс                                         : Встроенный Win32-интерфейс для Win NT/2000
Обработка зазоров                                 : Добавлено к предыдущему треку
Выходной формат          : Пользовательский кодировщик
Выбранный битрейт        : 1024 kBit/s
Качество                 : Высокий
Добавление ID3-тега      : Нет
Утилита сжатия           : N:\ПРОГРАММЫ\Exact Audio Copy\FLAC\FLAC.EXE
Дополнительные параметры : -6 -V -T "ARTIST=%artist%" -T "TITLE=%title%" -T "ALBUM=%albumtitle%" -T "DATE=%year%" -T "TRACKNUMBER=%tracknr%" -T "GENRE=%genre%" -T "COMMENT=%comment%" -T "BAND=%albuminterpret%" -T "ALBUMARTIST=%albuminterpret%" -T "COMPOSER=%composer%" %haslyrics%--tag-from-file=LYRICS="%lyricsfile%"%haslyrics% -T "DISCNUMBER=%cdnumber%" -T "TOTALDISCS=%totalcds%" -T "TOTALTRACKS=%numtracks%" %hascover%--picture="%coverfile%"%hascover% %source% -o %dest%
TOC извлечённого CD
     Трек |   Старт  | Длительность | Начальный сектор | Конечный сектор
    ---------------------------------------------------------------------
       1  |  0:00.00 |    4:53.37   |           0      |      22011
       2  |  4:53.37 |    5:18.37   |       22012      |      45898
       3  | 10:11.74 |    4:54.00   |       45899      |      67948
       4  | 15:05.74 |    5:22.00   |       67949      |      92098
       5  | 20:27.74 |    5:37.00   |       92099      |     117373
       6  | 26:04.74 |    5:34.00   |      117374      |     142423
       7  | 31:38.74 |    4:45.37   |      142424      |     163835
       8  | 36:24.36 |    5:54.28   |      163836      |     190413
       9  | 42:18.64 |    5:26.00   |      190414      |     214863
      10  | 47:44.64 |    6:03.37   |      214864      |     242125
      11  | 53:48.26 |    5:56.00   |      242126      |     268825
      12  | 59:44.26 |    5:24.37   |      268826      |     293162
      13  | 65:08.63 |    4:47.37   |      293163      |     314724
Трек  1
     Имя файла N:\МУЗЫКА\Michael E\2018 - Lush\01 Infinite Beauty.wav
     Длина предзазора  0:00:02.00
     Пиковый уровень 98.8 %
     Скорость извлечения 4.4 X
     Качество трека 99.9 %
     CRC теста AABC7327
     CRC копии AABC7327
     Трек не обнаружен в базе AccurateRip
     Копирование... OK
Трек  2
     Имя файла N:\МУЗЫКА\Michael E\2018 - Lush\02 Tokyo Morning.wav
     Длина предзазора  0:00:01.00
     Пиковый уровень 98.8 %
     Скорость извлечения 5.5 X
     Качество трека 100.0 %
     CRC теста FB013BEB
     CRC копии FB013BEB
     Трек не обнаружен в базе AccurateRip
     Копирование... OK
Трек  3
     Имя файла N:\МУЗЫКА\Michael E\2018 - Lush\03 Speak To The Others.wav
     Длина предзазора  0:00:01.00
     Пиковый уровень 98.8 %
     Скорость извлечения 5.9 X
     Качество трека 100.0 %
     CRC теста 7DFD8D72
     CRC копии 7DFD8D72
     Трек не обнаружен в базе AccurateRip
     Копирование... OK
Трек  4
     Имя файла N:\МУЗЫКА\Michael E\2018 - Lush\04 Masala.wav
     Длина предзазора  0:00:01.00
     Пиковый уровень 98.7 %
     Скорость извлечения 5.9 X
     Качество трека 99.9 %
     CRC теста D2BAEC5F
     CRC копии D2BAEC5F
     Трек не обнаружен в базе AccurateRip
     Копирование... OK
Трек  5
     Имя файла N:\МУЗЫКА\Michael E\2018 - Lush\05 Raindance.wav
     Длина предзазора  0:00:01.00
     Пиковый уровень 90.8 %
     Скорость извлечения 6.3 X
     Качество трека 99.9 %
     CRC теста DA83BD2E
     CRC копии DA83BD2E
     Трек не обнаружен в базе AccurateRip
     Копирование... OK
Трек  6
     Имя файла N:\МУЗЫКА\Michael E\2018 - Lush\06 Cotton Blossom.wav
     Длина предзазора  0:00:01.00
     Пиковый уровень 98.8 %
     Скорость извлечения 6.7 X
     Качество трека 99.9 %
     CRC теста E974E8A6
     CRC копии E974E8A6
     Трек не обнаружен в базе AccurateRip
     Копирование... OK
Трек  7
     Имя файла N:\МУЗЫКА\Michael E\2018 - Lush\07 Laxmi.wav
     Длина предзазора  0:00:01.00
     Пиковый уровень 98.8 %
     Скорость извлечения 6.9 X
     Качество трека 99.9 %
     CRC теста 02AFAC91
     CRC копии 02AFAC91
     Трек не обнаружен в базе AccurateRip
     Копирование... OK
Трек  8
     Имя файла N:\МУЗЫКА\Michael E\2018 - Lush\08 After The Storm.wav
     Длина предзазора  0:00:01.00
     Пиковый уровень 98.8 %
     Скорость извлечения 8.0 X
     Качество трека 100.0 %
     CRC теста 279EB281
     CRC копии 279EB281
     Трек не обнаружен в базе AccurateRip
     Копирование... OK
Трек  9
     Имя файла N:\МУЗЫКА\Michael E\2018 - Lush\09 Mantra.wav
     Длина предзазора  0:00:01.00
     Пиковый уровень 98.8 %
     Скорость извлечения 7.5 X
     Качество трека 99.9 %
     CRC теста A1AC4B5C
     CRC копии A1AC4B5C
     Трек не обнаружен в базе AccurateRip
     Копирование... OK
Трек 10
     Имя файла N:\МУЗЫКА\Michael E\2018 - Lush\10 It's Time.wav
     Длина предзазора  0:00:01.00
     Пиковый уровень 98.8 %
     Скорость извлечения 8.8 X
     Качество трека 100.0 %
     CRC теста 1E58E6AB
     CRC копии 1E58E6AB
     Трек не обнаружен в базе AccurateRip
     Копирование... OK
Трек 11
     Имя файла N:\МУЗЫКА\Michael E\2018 - Lush\11 Reccuring Dream.wav
     Длина предзазора  0:00:01.00
     Пиковый уровень 98.8 %
     Скорость извлечения 8.0 X
     Качество трека 100.0 %
     CRC теста 26CCDDCE
     CRC копии 26CCDDCE
     Трек не обнаружен в базе AccurateRip
     Копирование... OK
Трек 12
     Имя файла N:\МУЗЫКА\Michael E\2018 - Lush\12 Letting Go.wav
     Длина предзазора  0:00:01.00
     Пиковый уровень 98.8 %
     Скорость извлечения 9.2 X
     Качество трека 100.0 %
     CRC теста BF163C47
     CRC копии BF163C47
     Трек не обнаружен в базе AccurateRip
     Копирование... OK
Трек 13
     Имя файла N:\МУЗЫКА\Michael E\2018 - Lush\13 The End Of The Road.wav
     Длина предзазора  0:00:01.00
     Пиковый уровень 98.8 %
     Скорость извлечения 8.2 X
     Качество трека 99.9 %
     CRC теста 14439E8C
     CRC копии 14439E8C
     Трек не обнаружен в базе AccurateRip
     Копирование... OK
Ни одного трека нет в базе AccurateRip
Ошибок не произошло
Конец отчёта
---- CUETools DB Plugin V2.1.6
[CTDB TOCID: 3hLL7_QGncQ_YHmkfR1.3pCcsUQ-] disk not present in database
Submit result: 3hLL7_QGncQ_YHmkfR1.3pCcsUQ- has been uploaded
==== Контрольная сумма отчёта B523FF1C7763A622192FC66D5D697D9C5668939809DC77AF4EF0F629D1672664 ====
Приватный:
Нет (DHT включён)
Размер:
440.85 Мб (462,266,485 байт) » файлов: 19
Участники:
62 раздают, 0 качают (62 участников всего)
Внешние участники:
--- [ Обновить ]
13:46
371
Нет комментариев. Ваш будет первым!