Поиск

2018 Massimo Faraò Trio - My Romance {Venus} [DSD64 ISO]

2018 Massimo Faraò Trio - My Romance {Venus} [DSD64 ISO]
Стили:
Дата записи диска:
20 января - 21 января 2017
Место записи:
Azzurra Studio, Pastrengo
Издатель (лейбл):
Номер по каталогу:
VHGD-279
Носитель:
SACD
Формат:
DSD
Тип рипа:
image
Контейнер:
ISO (*.iso)
Количество каналов:
2.0
Разрядность/ЧД:
64 (2,8 MHz/1 Bit)
Битрейт аудио:
lossless
Время звучания:
01:00:09
Наличие сканов:
только обложка

01. Memories Of You《 E. Blake 》
02. Slow Hot Wind《 H. Mancini 》
03. The Very Thought Of You《 R. Noble 》
04. You Better Go Now《 R. Graham, B. Reichner 》
05. As Time Goes By《 H. Hupfield 》
06. Yesterdays《 J. Kern 》
07. My Romance《 R. Rodgers 》
08. Polka Dots And Moonbeams《 J Van Heusen 》
09. You Must Believe In Spring《 M. Legrand 》
10. Mood Indigo《 D. Ellington 》
11. Io Che Amo Solo Te《 S. Endrigo 》

Состав:
  • Massimo Farao' — piano
  • Nicola Barbon — bass
  • Roberto "Bobo" Facchinetti — drums
Лог проверки качества
foobar2000 1.6.7 / Замер динамического диапазона (DR) 1.1.1
Дата отчёта:  2021-10-27 18:28:12
--------------------------------------------------------------------------------
Анализ:   MASSIMO FARAO' TRIO / My Romance
--------------------------------------------------------------------------------
DR         Пики         RMS           Продолжительность трека
--------------------------------------------------------------------------------
DR11      -4.40 дБ   -18.13 дБ      6:43 01-Memories Of You
DR10      -4.17 дБ   -15.97 дБ      5:04 02-Slow Hot Wind
DR12      -4.64 дБ   -20.44 дБ      3:25 03-The Very Thought Of You
DR12      -4.41 дБ   -19.03 дБ      5:55 04-You Better Go Now
DR11      -4.32 дБ   -17.72 дБ      5:01 05-As Time Goes By
DR11      -4.31 дБ   -17.58 дБ      6:22 06-Yesterdays
DR10      -4.30 дБ   -16.51 дБ      5:32 07-My Romance
DR12      -4.32 дБ   -17.92 дБ      6:38 08-Polka Dots And Moonbeams
DR11      -4.28 дБ   -17.39 дБ      5:29 09-You Must Believe In Spring
DR13      -4.26 дБ   -19.36 дБ      5:07 10-Mood Indigo
DR12      -4.53 дБ   -18.29 дБ      4:52 11-Io Che Amo Solo Te
--------------------------------------------------------------------------------
Количество треков: 11
Реальные значения DR: DR11
Приватный:
Нет (DHT включён)
Размер:
2.43 Гб (2,610,556,420 байт) » файлов: 4
Участники:
0 раздают, 0 качают (0 участников всего)
Внешние участники:
--- [ Обновить ]
12:18
306
Нет комментариев. Ваш будет первым!