Поиск

2018 Lyn Stanley - London Calling: A Toast To Julie London {A.T. Music} [DSD64 ISO]

2018 Lyn Stanley - London Calling: A Toast To Julie London {A.T. Music} [DSD64 ISO]
Стили:
Носитель:
SACD
Формат:
DSD
Тип рипа:
image
Контейнер:
ISO (*.iso)
Количество каналов:
2.0
Разрядность/ЧД:
64 (2,8 MHz/1 Bit)
Битрейт аудио:
lossless
Время звучания:
01:05:36
Наличие сканов:
только обложка

01. Goody Goody  02:45
02. Call Me Irresponsible  03:34
03. Bye Bye Blackbird  02:48
04. I Heard It Through the Grapevine  05:29
05. How About Me?  02:54
06. Cry Me a River  04:01
07. As Time Goes By  05:17
08. Summertime  05:03
09. It's Impossible  03:51
10. Blue Moon  03:14
11. I've Got a Crush on You  02:45
12. Light My Fire  03:33
13. Sway  05:09
14. Go Slow / Nice Girls Don't Stay for Breakfast  02:52
15. You the Night and the Music  02:21
16. Ev'ry Time We Say Goodbye  04:03
17. Summertime (Piano Vocal)  06:16

Состав:
  • Lyn Stanley, vocals
  • John Chiodini, featured guitar
  • Mike Garson, piano
  • Christian Jacob, piano
  • Chuck Berghofer, bass
  • Mike Valerio, bass
  • Paul Kreibich, drums
  • Aaron Serfaty, drums, percussion
  • Luis Conte, percussion
  • Brad Dutz, percussion
Лог проверки качества
foobar2000 1.6.7 / Dynamic Range Meter 1.1.1
log date: 2021-11-19 21:37:16
--------------------------------------------------------------------------------
Analyzed: Lyn Stanley / London Calling
--------------------------------------------------------------------------------
DR         Peak         RMS     Duration Track
--------------------------------------------------------------------------------
DR11      -7.31 dB   -21.77 dB      2:45 01-Goody Goody
DR13      -4.11 dB   -21.21 dB      3:33 02-Call Me Irresponsible
DR12      -9.91 dB   -25.68 dB      2:48 03-Bye Bye Blackbird
DR13      -6.80 dB   -22.90 dB      5:28 04-I Heard It Through The Grapevine
DR12      -6.95 dB   -21.41 dB      2:53 05-How About Me?
DR13      -9.85 dB   -26.23 dB      4:01 06-Cry Me A River
DR13      -7.23 dB   -22.79 dB      5:17 07-As Time Goes By
DR13      -7.70 dB   -24.48 dB      5:02 08-Summertime
DR13      -7.08 dB   -23.26 dB      3:50 09-It's Impossible
DR12      -8.83 dB   -24.15 dB      3:13 10-Blue Moon
DR12      -9.80 dB   -25.52 dB      2:42 11-I've Got A Crush On You
DR12      -6.28 dB   -22.50 dB      3:32 12-Light My Fire
DR13      -6.41 dB   -24.30 dB      5:08 13-Sway
DR12      -9.98 dB   -24.19 dB      2:51 14-Go Slow/Nice Girls Don't Stay For Breakfast
DR13      -4.77 dB   -21.41 dB      2:19 15-You The Night And The Music
DR12      -8.26 dB   -24.86 dB      4:01 16-Ev'ry Time We Say Goodbye
DR14      -7.92 dB   -27.10 dB      6:16 17-Summertime (piano/vocal)
--------------------------------------------------------------------------------
Number of tracks:  17
Official DR value: DR12
Samplerate:        2822400 Hz / PCM Samplerate: 88200 Hz
Channels:          2
Bits per sample:   1
Bitrate:           5645 kbps
Codec:             DSD64
================================================================================
Приватный:
Нет (DHT включён)
Размер:
2.64 Гб (2,832,467,597 байт) » файлов: 4
Участники:
0 раздают, 0 качают (0 участников всего)
Внешние участники:
17 раздают, 5 качают (22 участников всего) [ Обновить ]
Скорость:
0/c 1.82 Кб/c
17:37
440
Нет комментариев. Ваш будет первым!