Вы используете незарегистрированную версию компонента "Вкладки"!

Поиск

2018 Kim Hoorweg - Untouchable {Suburban Music Group} [24-44,1]

2018 Kim Hoorweg - Untouchable {Suburban Music Group} [24-44,1]
Стили:
Номер по каталогу:
KCMP002
Страна-производитель диска (релиза):
Netherlands
Доп. инфо:

• Формат записи | Источник записи: [TR24][OF]
• Наличие водяных знаков: Нет
• Год издания релиза: 2018
• Лейбл: Suburban Music Group
• Продолжительность: 00:40:44
• Источник: internet
• WEB релиз: ссылка
• Контейнер: FLAC (*.flac)
• Тип рипа: tracks
• Разрядность: 24/44,1
• Формат: WAV (flac.ape.wv)
• Количество каналов: 2.0
• Наличие сканов: front

Лог проверки качества
foobar2000 1.3.9 / Замер динамического диапазона (DR) 1.1.1
Дата отчёта:  2020-02-04 10:12:40

--------------------------------------------------------------------------------
Анализ:   Kim Hoorweg / Untouchable
--------------------------------------------------------------------------------

DR         Пики         RMS           Продолжительность трека
--------------------------------------------------------------------------------
DR10      -0.02 дБ   -13.09 дБ      6:10 01-Soar
DR8       -0.02 дБ   -10.88 дБ      4:06 02-Dream On
DR9       -0.06 дБ   -11.46 дБ      4:56 03-Everybody
DR10       0.00 дБ   -11.94 дБ      3:42 04-Falling in Love
DR11      -0.09 дБ   -13.77 дБ      4:18 05-For Free
DR8       -0.09 дБ   -10.42 дБ      3:16 06-If I Ruled the World
DR9        0.00 дБ   -12.20 дБ      3:22 07-The Art of Breating Under Water
DR10      -0.09 дБ   -11.45 дБ      2:51 08-No Reason Why
DR10      -0.10 дБ   -11.85 дБ      4:08 09-Taste of Me
DR9       -0.08 дБ   -11.18 дБ      3:54 10-Untouchable
--------------------------------------------------------------------------------

Количество треков: 10
Реальные значения DR: DR9

Частота:   44100 Гц
Каналов:   2
Разрядность:   24
Битрейт:   1511 кбит/с
Кодек:   FLAC
================================================================================
Any questions - support@pro-jazz.com. Есть вопросы - support@pro-jazz.com
19:42
254
Нет комментариев. Ваш будет первым!