Поиск

2018 Kate Wadey - A Hundred Years From Today {Self Production}

2018 Kate Wadey - A Hundred Years From Today {Self Production}
Стили:

Состав:
  • Kate Wadey - vocals
  • Harry Sutherland - piano
  • Justin Fermino - sax
  • Eamon McNelis - trumpet
  • George Washingmachine - violin
  • Aaron Flower - guitar
  • Samuel Dobson - bass
  • Sasha Kloostra - drums

Год издания: 2018
Издатель: Self Production
Страна исполнителя: Australia
Аудиокодек: FLAC (*.flac)
Тип рипа: tracks
Битрейт аудио: lossless
Продолжительность: 40:26
Наличие сканов: нет

Треклист:
01. Sweet Loraine
02. A Hundred Years From Today
03. I'm Gonna Sit Right Down and Write Myself a Letter
04. Gone With the Wind
05. Angel Eyes
06. I Cover the Waterfront
07. Come Rain or Come Shine
08. Ev'ry Time We Say Goodbye
09. How Deep is the Ocean
10. Round Midnight

 
Лог проверки качества
AUDIOCHECKER v2.0 beta (build 457) - by Dester - opdester@freemail.hu
~~~~~~~~~~~~~~~~~~~~~~~~~~~~~~~~~~
-=== DO NOT EDIT THIS FILE! ===-
Path: ...\Kate Wadey - A Hundred Years From Today (2018) [FLAC]
01 -=- 01 - Sweet Loraine.flac -=- CDDA (100%)
02 -=- 02 - A Hundred Years From Today.flac -=- CDDA (100%)
03 -=- 03 - I'm Gonna Sit Right Down and Write Myself a Letter.flac -=- CDDA (99%)
04 -=- 04 - Gone With the Wind.flac -=- CDDA (100%)
05 -=- 05 - Angel Eyes.flac -=- CDDA (100%)
06 -=- 06 - I Cover the Waterfront.flac -=- CDDA (100%)
07 -=- 07 - Come Rain or Come Shine.flac -=- CDDA (100%)
08 -=- 08 - Ev'ry Time We Say Goodbye.flac -=- CDDA (100%)
09 -=- 09 - How Deep is the Ocean.flac -=- CDDA (100%)
10 -=- 10 - Round Midnight.flac -=- CDDA (100%)
Summary 99,90% CDDA
82701092
••••••••••
foobar2000 1.3.12 / Замер динамического диапазона (DR) 1.1.1
Дата отчёта:  2018-05-12 13:12:50
--------------------------------------------------------------------------------
Анализ:   Kate Wadey / A Hundred Years From Today
--------------------------------------------------------------------------------
DR         Пики         RMS           Продолжительность трека
--------------------------------------------------------------------------------
DR12      -0.84 дБ   -15.08 дБ      3:50 01-Sweet Loraine
DR11      -0.48 дБ   -13.62 дБ      4:05 02-A Hundred Years From Today
DR11      -0.83 дБ   -13.79 дБ      3:27 03-I'm Gonna Sit Right Down and Write Myself a Letter
DR12      -1.05 дБ   -15.03 дБ      2:58 04-Gone With the Wind
DR11      -0.95 дБ   -14.46 дБ      4:31 05-Angel Eyes
DR12      -0.66 дБ   -13.89 дБ      4:32 06-I Cover the Waterfront
DR11      -0.94 дБ   -13.60 дБ      3:17 07-Come Rain or Come Shine
DR12      -0.97 дБ   -14.77 дБ      3:21 08-Ev'ry Time We Say Goodbye
DR13      -0.72 дБ   -15.17 дБ      4:57 09-How Deep is the Ocean
DR12      -1.02 дБ   -16.15 дБ      5:29 10-Round Midnight
--------------------------------------------------------------------------------
Количество треков: 10
Реальные значения DR: DR12
Частота:   44100 Гц
Каналов:   2
Разрядность:   16
Битрейт:   696 кбит/с
Кодек:   FLAC
================================================================================

 

Скачивание доступно после регистрации!!
Приватный:
Нет (DHT включён)
Размер:
230.05 Мб (241,225,557 байт) » файлов: 12
Участники:
3 раздают, 0 качают (3 участников всего)
Внешние участники:
--- [ Обновить ]
16:58
106
RSS
Нет комментариев. Ваш будет первым!