Поиск

2018 Kaleidoscope Of Colours, Maxi Menot - Inspire {Klanglobby} [24-48]

2018 Kaleidoscope Of Colours, Maxi Menot - Inspire {Klanglobby} [24-48]
Носитель:
WEB
Формат:
PCM
Тип рипа:
tracks
Контейнер:
FLAC (*.flac)
Количество каналов:
2.0
Разрядность/ЧД:
24/48
Наличие сканов:
только обложка
Наличие водяных знаков:
нет
Релизёр (источник):
M0p94ok
Треклист:

01. Green Dots  01:46
02. Edna Mae  02:37
03. Hide and Seek  02:47
04. Day Dream  02:14
05. The Flow  02:28
06. Dancing Magpies  03:05
07. Travelogue  03:06
08. Deluge  03:28
09. Bittersweet Symphony  03:06
10. My Melody  02:48
11. Red Aura  03:02
12. Sound of Love  03:28
13. Grey  03:27
14. Sleep  02:40
15. Time Is Running  02:45
16. The End  02:10

Лог проверки качества
foobar2000 1.3.16 / Dynamic Range Meter 1.1.1
log date: 2018-11-20 04:10:58

--------------------------------------------------------------------------------
Analyzed: Kaleidoscope Of Colours, Maxi Menot / Inspire
--------------------------------------------------------------------------------

DR         Peak         RMS     Duration Track
--------------------------------------------------------------------------------
DR5       -1.29 dB    -9.28 dB      1:47 01-Green Dots
DR7       -1.31 dB   -10.62 dB      2:38 02-Edna Mae
DR6       -1.27 dB    -9.83 dB      2:47 03-Hide and Seek
DR6       -1.31 dB   -10.12 dB      2:15 04-Day Dream
DR6       -1.30 dB   -10.69 dB      2:29 05-The Flow
DR5       -1.30 dB    -9.67 dB      3:06 06-Dancing Magpies
DR5       -1.30 dB   -10.48 dB      3:06 07-Travelogue
DR6       -1.31 dB    -9.57 dB      3:28 08-Deluge
DR6       -1.30 dB    -9.36 dB      3:06 09-Bittersweet Symphony
DR6       -1.30 dB   -10.15 dB      2:48 10-My Melody
DR5       -1.29 dB    -9.50 dB      3:02 11-Red Aura
DR5       -1.31 dB   -10.00 dB      3:29 12-Sound of Love
DR6       -1.29 dB   -10.86 dB      3:27 13-Grey
DR5       -1.30 dB    -9.31 dB      2:41 14-Sleep
DR7       -1.30 dB   -14.30 dB      2:46 15-Time Is Running
DR5       -1.31 dB   -11.28 dB      2:11 16-The End
--------------------------------------------------------------------------------

Number of tracks:  16
Official DR value: DR6

Samplerate:        48000 Hz
Channels:          2
Bits per sample:   24
Bitrate:           1475 kbps
Codec:             FLAC
================================================================================
Приватный:
Нет (DHT включён)
Размер:
502.78 Мб (527,206,227 байт) » файлов: 18
Участники:
5 раздают, 1 качают (6 участников всего)
Внешние участники:
--- [ Обновить ]
Есть вопросы - пишите личное сообщение пользователю M0p94ok.
22:02
18
Нет комментариев. Ваш будет первым!