Поиск

2018 Juju - I {Sony} [24-96]

2018 Juju - I {Sony} [24-96]
Стили:
Дата издания диска:
21 февраля 2018
Издатель (лейбл):
Носитель:
WEB
Формат:
PCM
Тип рипа:
tracks
Контейнер:
FLAC (*.flac)
Количество каналов:
2.0
Разрядность/ЧД:
24/96
Битрейт аудио:
lossless
Наличие сканов:
только обложка

This album is available on our DC++ hub: dc.pro-jazz.com
Этот альбом доступен на нашем DC++ хабе: dc.pro-jazz.com

01. Love Is Like  05:20
02. Iiwake  04:50
03. Kawaisoudayone  04:52
04. Tokyo  05:43
05. Anoyorunofutari  05:19
06. Risky   04:11
07. Let It Flow  04:11
08. Because of You  04:44
09. Roll the Dice  03:54
10. Urahara  03:31
11. Believe Believe  03:52
12. Anatagakuretamono  04:14
13. I  04:54

 

Состав:
  • Juju — Vocals
Лог проверки качества
foobar2000 1.3.16 / Dynamic Range Meter 1.1.1
log date: 2018-05-13 23:03:49

--------------------------------------------------------------------------------
Analyzed: JUJU with HITSUJI / I (1)
          JUJU / I (2-13)
--------------------------------------------------------------------------------

DR         Peak         RMS     Duration Track
--------------------------------------------------------------------------------
DR8        0.00 dB   -10.44 dB      4:53 03-かわいそうだよね
DR6        0.00 dB    -7.55 dB      5:21 01-Love Is Like
DR5        0.00 dB    -6.63 dB      4:50 02-いいわけ
DR5        0.00 dB    -8.02 dB      5:44 04-東京
DR8        0.00 dB    -9.15 dB      5:19 05-あの夜のふたり
DR6        0.00 dB    -7.36 dB      4:11 06-RISKY
DR5       -0.88 dB    -7.58 dB      4:11 07-Let It Flow
DR6        0.00 dB    -9.08 dB      4:44 08-Because of You
DR6        0.00 dB    -7.09 dB      3:54 09-Roll the Dice
DR6       -0.30 dB    -7.54 dB      3:32 10-ウラハラ
DR6        0.00 dB    -7.71 dB      3:53 11-believe believe
DR8        0.00 dB   -10.49 dB      4:14 12-あなたがくれたもの
DR6        0.00 dB    -7.33 dB      4:55 13-I
--------------------------------------------------------------------------------

Number of tracks:  13
Official DR value: DR6

Samplerate:        96000 Hz
Channels:          2
Bits per sample:   24
Bitrate:           3007 kbps
Codec:             FLAC
================================================================================
18:05
277
Нет комментариев. Ваш будет первым!