Поиск

2018 John Coltrane - 1963: New Directions {Impulse, Verve} [3CD]

2018 John Coltrane - 1963: New Directions {Impulse, Verve} [3CD]
Дата записи диска:
6-7 марта, 29 апреля, 7 июля, 8 октября, 18 ноября 1963
Место записи:
Van Gelder Studio, Englewood Cliffs, NJ
Дата издания диска:
2018
Издатель (лейбл):
Носитель:
CD
Тип рипа:
tracks
Аудиокодек:
FLAC (*.flac)
Битрейт аудио:
lossless
Время звучания:
03:35:22
Наличие сканов:
буклет pdf
Страна-производитель диска (релиза):
Netherlands
Релизёр (источник):
ravana

Треклист:

[Disc 1]

  1. Vilia (Take 3) 5:32
  2. Vilia (Take 5) 4:37
  3. Untitled Original 11383 5:41
  4. Nature Boy 3:24
  5. Impressions (Take 1) 4:06
  6. Impressions (Take 2) 4:37
  7. Impressions (Take 3) 4:36
  8. Impressions (Take 4) 3:40
  9. Untitled Original 11386 (Take 1) 8:43
  10. Untitled Original 11386 (Take 2) 8:41
  11. Untitled Original 11386 (Take 5) 8:23
  12. One Up, One Down (Take 1) 8:01
  13. One Up, One Down (Take 5) 7:17

[Disc 2]

  1. Slow Blues 11:28
  2. They Say It’s Wonderful 5:15
  3. Lush Life 5:20
  4. My One and Only Love 4:50
  5. Autumn Serenade 4:11
  6. Dedicated to You 5:27
  7. You Are Too Beautiful 5:32
  8. After the Rain 4:07
  9. Dear Old Stockholm 10:33
  10. I Want to Talk About You 9:41

[Disc 3]

  1. My Favorite Things 17:20
  2. Impressions 23:30
  3. The Promise 8:04
  4. I Want to Talk About You 8:05
  5. Afro Blue 10:40
  6. Your Lady 6:35
  7. Alabama 5:05
Лог создания рипа
CD 01
Exact Audio Copy V1.3 from 2. September 2016

EAC extraction logfile from 25. February 2019, 21:32

John Coltrane / 1963: New Directions

Used drive  : PLEXTOR CD-R   PREMIUM   Adapter: 1  ID: 1

Read mode               : Secure
Utilize accurate stream : Yes
Defeat audio cache      : Yes
Make use of C2 pointers : No

Read offset correction                      : 30
Overread into Lead-In and Lead-Out          : No
Fill up missing offset samples with silence : Yes
Delete leading and trailing silent blocks   : No
Null samples used in CRC calculations       : Yes
Used interface                              : Native Win32 interface for Win NT & 2000
Gap handling                                : Appended to previous track

Used output format              : User Defined Encoder
Selected bitrate                : 1024 kBit/s
Quality                         : High
Add ID3 tag                     : No
Command line compressor         : C:\Program Files (x86)\Exact Audio Copy\Flac\flac.exe
Additional command line options : -8 -V -T "ARTIST=%artist%" -T "TITLE=%title%" -T "ALBUM=%albumtitle%" -T "DATE=%year%" -T "TRACKNUMBER=%tracknr%" -T "GENRE=%genre%" -T "PERFORMER=%albuminterpret%" -T "COMPOSER=%composer%" %haslyrics%--tag-from-file=LYRICS="%lyricsfile%"%haslyrics% -T "ALBUMARTIST=%albumartist%" -T "DISCNUMBER=%cdnumber%" -T "TOTALDISCS=%totalcds%" -T "TOTALTRACKS=%numtracks%" -T "COMMENT=%comment%" %source% -o %dest%


TOC of the extracted CD

     Track |   Start  |  Length  | Start sector | End sector 
    ---------------------------------------------------------
        1  |  0:00.00 |  5:32.61 |         0    |    24960   
        2  |  5:32.61 |  4:37.15 |     24961    |    45750   
        3  | 10:10.01 |  5:41.16 |     45751    |    71341   
        4  | 15:51.17 |  3:24.14 |     71342    |    86655   
        5  | 19:15.31 |  4:06.38 |     86656    |   105143   
        6  | 23:21.69 |  4:37.65 |    105144    |   125983   
        7  | 27:59.59 |  4:36.08 |    125984    |   146691   
        8  | 32:35.67 |  3:40.23 |    146692    |   163214   
        9  | 36:16.15 |  8:43.29 |    163215    |   202468   
       10  | 44:59.44 |  8:41.21 |    202469    |   241564   
       11  | 53:40.65 |  8:23.11 |    241565    |   279300   
       12  | 62:04.01 |  8:01.53 |    279301    |   315428   
       13  | 70:05.54 |  7:17.54 |    315429    |   348257   


Track  1

     Filename Z:\eac rips\John Coltrane - 1963- New Directions (2018) {0602577020186 Impulse!, Verve, UMe, EU, RM SE 3CD} [FLAC]\CD1\01 - Vilia (Take 3).wav

     Pre-gap length  0:00:02.00

     Peak level 89.3 %
     Extraction speed 3.7 X
     Track quality 100.0 %
     Test CRC 398C5112
     Copy CRC 398C5112
     Accurately ripped (confidence 6)  [D1CFCC49]  (AR v2)
     Copy OK

Track  2

     Filename Z:\eac rips\John Coltrane - 1963- New Directions (2018) {0602577020186 Impulse!, Verve, UMe, EU, RM SE 3CD} [FLAC]\CD1\02 - Vilia (Take 5).wav

     Peak level 89.5 %
     Extraction speed 3.3 X
     Track quality 99.9 %
     Test CRC 326D2C4A
     Copy CRC 326D2C4A
     Accurately ripped (confidence 6)  [E9B675CD]  (AR v2)
     Copy OK

Track  3

     Filename Z:\eac rips\John Coltrane - 1963- New Directions (2018) {0602577020186 Impulse!, Verve, UMe, EU, RM SE 3CD} [FLAC]\CD1\03 - Untitled Original 11383.wav

     Peak level 89.5 %
     Extraction speed 3.7 X
     Track quality 100.0 %
     Test CRC 4A53C644
     Copy CRC 4A53C644
     Accurately ripped (confidence 6)  [771EAE30]  (AR v2)
     Copy OK

Track  4

     Filename Z:\eac rips\John Coltrane - 1963- New Directions (2018) {0602577020186 Impulse!, Verve, UMe, EU, RM SE 3CD} [FLAC]\CD1\04 - Nature Boy.wav

     Peak level 89.2 %
     Extraction speed 3.3 X
     Track quality 99.9 %
     Test CRC 6E121075
     Copy CRC 6E121075
     Accurately ripped (confidence 6)  [6F13CA70]  (AR v2)
     Copy OK

Track  5

     Filename Z:\eac rips\John Coltrane - 1963- New Directions (2018) {0602577020186 Impulse!, Verve, UMe, EU, RM SE 3CD} [FLAC]\CD1\05 - Impressions (Take 1).wav

     Peak level 89.2 %
     Extraction speed 3.7 X
     Track quality 100.0 %
     Test CRC FF93D5BF
     Copy CRC FF93D5BF
     Accurately ripped (confidence 6)  [93DE2818]  (AR v2)
     Copy OK

Track  6

     Filename Z:\eac rips\John Coltrane - 1963- New Directions (2018) {0602577020186 Impulse!, Verve, UMe, EU, RM SE 3CD} [FLAC]\CD1\06 - Impressions (Take 2).wav

     Peak level 89.3 %
     Extraction speed 3.4 X
     Track quality 99.9 %
     Test CRC 085D4067
     Copy CRC 085D4067
     Accurately ripped (confidence 6)  [EAF070D5]  (AR v2)
     Copy OK

Track  7

     Filename Z:\eac rips\John Coltrane - 1963- New Directions (2018) {0602577020186 Impulse!, Verve, UMe, EU, RM SE 3CD} [FLAC]\CD1\07 - Impressions (Take 3).wav

     Peak level 89.2 %
     Extraction speed 3.7 X
     Track quality 100.0 %
     Test CRC B63BFA29
     Copy CRC B63BFA29
     Accurately ripped (confidence 6)  [4036FF5A]  (AR v2)
     Copy OK

Track  8

     Filename Z:\eac rips\John Coltrane - 1963- New Directions (2018) {0602577020186 Impulse!, Verve, UMe, EU, RM SE 3CD} [FLAC]\CD1\08 - Impressions (Take 4).wav

     Peak level 89.1 %
     Extraction speed 3.7 X
     Track quality 100.0 %
     Test CRC DF1AB59C
     Copy CRC DF1AB59C
     Accurately ripped (confidence 6)  [4B672F67]  (AR v2)
     Copy OK

Track  9

     Filename Z:\eac rips\John Coltrane - 1963- New Directions (2018) {0602577020186 Impulse!, Verve, UMe, EU, RM SE 3CD} [FLAC]\CD1\09 - Untitled Original 11386 (Take 1).wav

     Peak level 89.3 %
     Extraction speed 3.8 X
     Track quality 100.0 %
     Test CRC B0511FED
     Copy CRC B0511FED
     Accurately ripped (confidence 6)  [29505B88]  (AR v2)
     Copy OK

Track 10

     Filename Z:\eac rips\John Coltrane - 1963- New Directions (2018) {0602577020186 Impulse!, Verve, UMe, EU, RM SE 3CD} [FLAC]\CD1\10 - Untitled Original 11386 (Take 2).wav

     Peak level 89.1 %
     Extraction speed 3.8 X
     Track quality 100.0 %
     Test CRC 98BC2CE4
     Copy CRC 98BC2CE4
     Accurately ripped (confidence 6)  [6631D622]  (AR v2)
     Copy OK

Track 11

     Filename Z:\eac rips\John Coltrane - 1963- New Directions (2018) {0602577020186 Impulse!, Verve, UMe, EU, RM SE 3CD} [FLAC]\CD1\11 - Untitled Original 11386 (Take 5).wav

     Peak level 89.2 %
     Extraction speed 3.8 X
     Track quality 100.0 %
     Test CRC 7577A7E5
     Copy CRC 7577A7E5
     Accurately ripped (confidence 6)  [64CA7008]  (AR v2)
     Copy OK

Track 12

     Filename Z:\eac rips\John Coltrane - 1963- New Directions (2018) {0602577020186 Impulse!, Verve, UMe, EU, RM SE 3CD} [FLAC]\CD1\12 - One Up, One Down (Take 1).wav

     Peak level 89.4 %
     Extraction speed 3.6 X
     Track quality 99.9 %
     Test CRC 3B3BEE11
     Copy CRC 3B3BEE11
     Accurately ripped (confidence 6)  [CED9B780]  (AR v2)
     Copy OK

Track 13

     Filename Z:\eac rips\John Coltrane - 1963- New Directions (2018) {0602577020186 Impulse!, Verve, UMe, EU, RM SE 3CD} [FLAC]\CD1\13 - One Up, One Down (Take 6).wav

     Peak level 89.5 %
     Extraction speed 3.4 X
     Track quality 100.0 %
     Test CRC D60509C3
     Copy CRC D60509C3
     Accurately ripped (confidence 6)  [805FCAFA]  (AR v2)
     Copy OK


All tracks accurately ripped

No errors occurred

End of status report

---- CUETools DB Plugin V2.1.6

[CTDB TOCID: khxl8fvqb4dEPV5Af2zu6b2eQkM-] found
Submit result: khxl8fvqb4dEPV5Af2zu6b2eQkM- has been confirmed
Track | CTDB Status
  1   | (19/19) Accurately ripped
  2   | (19/19) Accurately ripped
  3   | (19/19) Accurately ripped
  4   | (19/19) Accurately ripped
  5   | (19/19) Accurately ripped
  6   | (19/19) Accurately ripped
  7   | (19/19) Accurately ripped
  8   | (19/19) Accurately ripped
  9   | (19/19) Accurately ripped
 10   | (19/19) Accurately ripped
 11   | (19/19) Accurately ripped
 12   | (19/19) Accurately ripped
 13   | (19/19) Accurately ripped


==== Log checksum DF27EA8B60C59E6D9BC443FE487150368E3FC24CF2F295BA2968863712C8DB51 ====

CD 02
Exact Audio Copy V1.3 from 2. September 2016

EAC extraction logfile from 26. February 2019, 18:42

John Coltrane / 1963: New Directions

Used drive  : PLEXTOR CD-R   PREMIUM   Adapter: 1  ID: 1

Read mode               : Secure
Utilize accurate stream : Yes
Defeat audio cache      : Yes
Make use of C2 pointers : No

Read offset correction                      : 30
Overread into Lead-In and Lead-Out          : No
Fill up missing offset samples with silence : Yes
Delete leading and trailing silent blocks   : No
Null samples used in CRC calculations       : Yes
Used interface                              : Native Win32 interface for Win NT & 2000
Gap handling                                : Appended to previous track

Used output format              : User Defined Encoder
Selected bitrate                : 1024 kBit/s
Quality                         : High
Add ID3 tag                     : No
Command line compressor         : C:\Program Files (x86)\Exact Audio Copy\Flac\flac.exe
Additional command line options : -8 -V -T "ARTIST=%artist%" -T "TITLE=%title%" -T "ALBUM=%albumtitle%" -T "DATE=%year%" -T "TRACKNUMBER=%tracknr%" -T "GENRE=%genre%" -T "PERFORMER=%albuminterpret%" -T "COMPOSER=%composer%" %haslyrics%--tag-from-file=LYRICS="%lyricsfile%"%haslyrics% -T "ALBUMARTIST=%albumartist%" -T "DISCNUMBER=%cdnumber%" -T "TOTALDISCS=%totalcds%" -T "TOTALTRACKS=%numtracks%" -T "COMMENT=%comment%" %source% -o %dest%


TOC of the extracted CD

     Track |   Start  |  Length  | Start sector | End sector 
    ---------------------------------------------------------
        1  |  0:00.00 | 11:28.39 |         0    |    51638   
        2  | 11:28.39 |  5:21.05 |     51639    |    75718   
        3  | 16:49.44 |  5:29.26 |     75719    |   100419   
        4  | 22:18.70 |  4:57.13 |    100420    |   122707   
        5  | 27:16.08 |  4:18.23 |    122708    |   142080   
        6  | 31:34.31 |  5:33.33 |    142081    |   167088   
        7  | 37:07.64 |  5:37.15 |    167089    |   192378   
        8  | 42:45.04 |  4:07.15 |    192379    |   210918   
        9  | 46:52.19 | 10:35.41 |    210919    |   258584   
       10  | 57:27.60 |  8:16.41 |    258585    |   295825   


Track  1

     Filename Z:\eac rips\John Coltrane - 1963- New Directions (2018) {0602577020186 Impulse!, Verve, UMe, EU, RM SE 3CD} [FLAC]\CD2\01 - John Coltrane - Slow Blues.wav

     Pre-gap length  0:00:02.00

     Peak level 84.5 %
     Extraction speed 3.7 X
     Track quality 100.0 %
     Test CRC 17C29EF3
     Copy CRC 17C29EF3
     Accurately ripped (confidence 5)  [FA3182C9]  (AR v2)
     Copy OK

Track  2

     Filename Z:\eac rips\John Coltrane - 1963- New Directions (2018) {0602577020186 Impulse!, Verve, UMe, EU, RM SE 3CD} [FLAC]\CD2\02 - John Coltrane, Johnny Hartman - They Say It's Wonderful.wav

     Peak level 100.0 %
     Extraction speed 3.7 X
     Track quality 100.0 %
     Test CRC 823D56A2
     Copy CRC 823D56A2
     Accurately ripped (confidence 5)  [777F8515]  (AR v2)
     Copy OK

Track  3

     Filename Z:\eac rips\John Coltrane - 1963- New Directions (2018) {0602577020186 Impulse!, Verve, UMe, EU, RM SE 3CD} [FLAC]\CD2\03 - John Coltrane, Johnny Hartman - Lush Life.wav

     Peak level 100.0 %
     Extraction speed 3.5 X
     Track quality 99.9 %
     Test CRC 06DB38DC
     Copy CRC 06DB38DC
     Accurately ripped (confidence 5)  [18DEE3D0]  (AR v2)
     Copy OK

Track  4

     Filename Z:\eac rips\John Coltrane - 1963- New Directions (2018) {0602577020186 Impulse!, Verve, UMe, EU, RM SE 3CD} [FLAC]\CD2\04 - John Coltrane, Johnny Hartman - My One and Only Love.wav

     Peak level 100.0 %
     Extraction speed 3.7 X
     Track quality 100.0 %
     Test CRC 5DFCCF28
     Copy CRC 5DFCCF28
     Accurately ripped (confidence 5)  [D416ADD4]  (AR v2)
     Copy OK

Track  5

     Filename Z:\eac rips\John Coltrane - 1963- New Directions (2018) {0602577020186 Impulse!, Verve, UMe, EU, RM SE 3CD} [FLAC]\CD2\05 - John Coltrane, Johnny Hartman - Autumn Serenade.wav

     Peak level 100.0 %
     Extraction speed 3.4 X
     Track quality 99.9 %
     Test CRC 96D04F1B
     Copy CRC 96D04F1B
     Accurately ripped (confidence 5)  [FB2A372A]  (AR v2)
     Copy OK

Track  6

     Filename Z:\eac rips\John Coltrane - 1963- New Directions (2018) {0602577020186 Impulse!, Verve, UMe, EU, RM SE 3CD} [FLAC]\CD2\06 - John Coltrane, Johnny Hartman - Dedicated to You.wav

     Peak level 83.5 %
     Extraction speed 3.8 X
     Track quality 100.0 %
     Test CRC DB4547C3
     Copy CRC DB4547C3
     Accurately ripped (confidence 5)  [CE98A9EC]  (AR v2)
     Copy OK

Track  7

     Filename Z:\eac rips\John Coltrane - 1963- New Directions (2018) {0602577020186 Impulse!, Verve, UMe, EU, RM SE 3CD} [FLAC]\CD2\07 - John Coltrane, Johnny Hartman - You Are Too Beautiful.wav

     Peak level 100.0 %
     Extraction speed 3.8 X
     Track quality 100.0 %
     Test CRC 5FB6DFB7
     Copy CRC 5FB6DFB7
     Accurately ripped (confidence 5)  [D070EB9A]  (AR v2)
     Copy OK

Track  8

     Filename Z:\eac rips\John Coltrane - 1963- New Directions (2018) {0602577020186 Impulse!, Verve, UMe, EU, RM SE 3CD} [FLAC]\CD2\08 - John Coltrane - After the Rain.wav

     Peak level 94.0 %
     Extraction speed 3.7 X
     Track quality 100.0 %
     Test CRC 4487B432
     Copy CRC 4487B432
     Accurately ripped (confidence 5)  [B4B5DE0D]  (AR v2)
     Copy OK

Track  9

     Filename Z:\eac rips\John Coltrane - 1963- New Directions (2018) {0602577020186 Impulse!, Verve, UMe, EU, RM SE 3CD} [FLAC]\CD2\09 - John Coltrane - Dear Old Stockholm.wav

     Peak level 100.0 %
     Extraction speed 3.8 X
     Track quality 100.0 %
     Test CRC 74C14690
     Copy CRC 74C14690
     Accurately ripped (confidence 5)  [363CAB74]  (AR v2)
     Copy OK

Track 10

     Filename Z:\eac rips\John Coltrane - 1963- New Directions (2018) {0602577020186 Impulse!, Verve, UMe, EU, RM SE 3CD} [FLAC]\CD2\10 - John Coltrane - I Want to Talk About You (Live at the Newport Jazz Festival - July 7, 1963).wav

     Peak level 100.0 %
     Extraction speed 3.4 X
     Track quality 100.0 %
     Test CRC C26E9D27
     Copy CRC C26E9D27
     Accurately ripped (confidence 5)  [047F38A8]  (AR v2)
     Copy OK


All tracks accurately ripped

No errors occurred

End of status report

---- CUETools DB Plugin V2.1.6

[CTDB TOCID: VxeX1YSNDYBYAzTyxZJLl_O15G4-] found
Submit result: VxeX1YSNDYBYAzTyxZJLl_O15G4- has been confirmed
Track | CTDB Status
  1   | (20/20) Accurately ripped
  2   | (20/20) Accurately ripped
  3   | (20/20) Accurately ripped
  4   | (20/20) Accurately ripped
  5   | (20/20) Accurately ripped
  6   | (20/20) Accurately ripped
  7   | (20/20) Accurately ripped
  8   | (20/20) Accurately ripped
  9   | (20/20) Accurately ripped
 10   | (17/20) Accurately ripped


==== Log checksum 0513EAF30843D79CB86CD75094495A3FDA676F902A22511EDF2820EDD73ECCAD ====

CD 03
Exact Audio Copy V1.3 from 2. September 2016

EAC extraction logfile from 26. February 2019, 19:32

John Coltrane / 1963: New Directions

Used drive  : PLEXTOR CD-R   PREMIUM   Adapter: 1  ID: 1

Read mode               : Secure
Utilize accurate stream : Yes
Defeat audio cache      : Yes
Make use of C2 pointers : No

Read offset correction                      : 30
Overread into Lead-In and Lead-Out          : No
Fill up missing offset samples with silence : Yes
Delete leading and trailing silent blocks   : No
Null samples used in CRC calculations       : Yes
Used interface                              : Native Win32 interface for Win NT & 2000
Gap handling                                : Appended to previous track

Used output format              : User Defined Encoder
Selected bitrate                : 1024 kBit/s
Quality                         : High
Add ID3 tag                     : No
Command line compressor         : C:\Program Files (x86)\Exact Audio Copy\Flac\flac.exe
Additional command line options : -8 -V -T "ARTIST=%artist%" -T "TITLE=%title%" -T "ALBUM=%albumtitle%" -T "DATE=%year%" -T "TRACKNUMBER=%tracknr%" -T "GENRE=%genre%" -T "PERFORMER=%albuminterpret%" -T "COMPOSER=%composer%" %haslyrics%--tag-from-file=LYRICS="%lyricsfile%"%haslyrics% -T "ALBUMARTIST=%albumartist%" -T "DISCNUMBER=%cdnumber%" -T "TOTALDISCS=%totalcds%" -T "TOTALTRACKS=%numtracks%" -T "COMMENT=%comment%" %source% -o %dest%


TOC of the extracted CD

     Track |   Start  |  Length  | Start sector | End sector 
    ---------------------------------------------------------
        1  |  0:00.00 | 17:27.28 |         0    |    78552   
        2  | 17:27.28 | 15:43.06 |     78553    |   149283   
        3  | 33:10.34 |  8:12.10 |    149284    |   186193   
        4  | 41:22.44 |  8:12.20 |    186194    |   223113   
        5  | 49:34.64 | 10:51.26 |    223114    |   271964   
        6  | 60:26.15 |  6:38.38 |    271965    |   301852   
        7  | 67:04.53 |  5:09.62 |    301853    |   325089   


Track  1

     Filename Z:\eac rips\John Coltrane - 1963- New Directions (2018) {0602577020186 Impulse!, Verve, UMe, EU, RM SE 3CD} [FLAC]\CD3\01 - My Favorite Things (Live at the Newport Jazz Festival - July 7, 1963).wav

     Pre-gap length  0:00:02.00

     Peak level 100.0 %
     Extraction speed 3.7 X
     Track quality 100.0 %
     Test CRC 2C5C06A0
     Copy CRC 2C5C06A0
     Accurately ripped (confidence 5)  [D641817D]  (AR v2)
     Copy OK

Track  2

     Filename Z:\eac rips\John Coltrane - 1963- New Directions (2018) {0602577020186 Impulse!, Verve, UMe, EU, RM SE 3CD} [FLAC]\CD3\02 - Impressions (Live at the Newport Jazz Festival - July 7, 1963).wav

     Peak level 100.0 %
     Extraction speed 3.8 X
     Track quality 100.0 %
     Test CRC FB2C72B1
     Copy CRC FB2C72B1
     Accurately ripped (confidence 5)  [5CDE68C4]  (AR v2)
     Copy OK

Track  3

     Filename Z:\eac rips\John Coltrane - 1963- New Directions (2018) {0602577020186 Impulse!, Verve, UMe, EU, RM SE 3CD} [FLAC]\CD3\03 - The Promise (Live at Birdland, NYC - October 8, 1963).wav

     Peak level 100.0 %
     Extraction speed 3.8 X
     Track quality 100.0 %
     Test CRC 3E55CD30
     Copy CRC 3E55CD30
     Accurately ripped (confidence 5)  [E736BC51]  (AR v2)
     Copy OK

Track  4

     Filename Z:\eac rips\John Coltrane - 1963- New Directions (2018) {0602577020186 Impulse!, Verve, UMe, EU, RM SE 3CD} [FLAC]\CD3\04 - I Want to Talk About You (Live at Birdland, NYC - October 8, 1963).wav

     Peak level 100.0 %
     Extraction speed 3.8 X
     Track quality 100.0 %
     Test CRC E912D2AB
     Copy CRC E912D2AB
     Accurately ripped (confidence 5)  [7E577707]  (AR v2)
     Copy OK

Track  5

     Filename Z:\eac rips\John Coltrane - 1963- New Directions (2018) {0602577020186 Impulse!, Verve, UMe, EU, RM SE 3CD} [FLAC]\CD3\05 - Afro Blue (Live at Birdland, NYC - October 8, 1963).wav

     Peak level 100.0 %
     Extraction speed 3.6 X
     Track quality 99.9 %
     Test CRC 9ADFF5C5
     Copy CRC 9ADFF5C5
     Accurately ripped (confidence 5)  [5B31C14B]  (AR v2)
     Copy OK

Track  6

     Filename Z:\eac rips\John Coltrane - 1963- New Directions (2018) {0602577020186 Impulse!, Verve, UMe, EU, RM SE 3CD} [FLAC]\CD3\06 - Your Lady.wav

     Peak level 100.0 %
     Extraction speed 3.8 X
     Track quality 100.0 %
     Test CRC 2E4E11FC
     Copy CRC 2E4E11FC
     Accurately ripped (confidence 5)  [3D07A0A4]  (AR v2)
     Copy OK

Track  7

     Filename Z:\eac rips\John Coltrane - 1963- New Directions (2018) {0602577020186 Impulse!, Verve, UMe, EU, RM SE 3CD} [FLAC]\CD3\07 - Alabama.wav

     Peak level 100.0 %
     Extraction speed 3.7 X
     Track quality 100.0 %
     Test CRC 6331BDBD
     Copy CRC 6331BDBD
     Accurately ripped (confidence 5)  [B4F3DE65]  (AR v2)
     Copy OK


All tracks accurately ripped

No errors occurred

End of status report

---- CUETools DB Plugin V2.1.6

[CTDB TOCID: WB6KerPg5SWNTGlSxE_VOetyfkE-] found
Submit result: WB6KerPg5SWNTGlSxE_VOetyfkE- has been confirmed
Track | CTDB Status
  1   | (19/19) Accurately ripped
  2   | (19/19) Accurately ripped
  3   | (19/19) Accurately ripped
  4   | (19/19) Accurately ripped
  5   | (19/19) Accurately ripped
  6   | (19/19) Accurately ripped
  7   | (19/19) Accurately ripped


==== Log checksum 3285033B347A8EA0982910D04316070652A01D3458F075561A15DB612E4F32EE ====
Содержание индексной карты (.CUE)
CD 01
REM GENRE Jazz
REM DATE 2018
REM DISCID A612230D
REM COMMENT "ExactAudioCopy v1.3"
CATALOG 0602577089046
PERFORMER "John Coltrane"
TITLE "1963: New Directions"
REM COMPOSER ""
FILE "01 - Vilia (Take 3).wav" WAVE
  TRACK 01 AUDIO
    TITLE "Vilia (Take 3)"
    PERFORMER "John Coltrane"
    REM COMPOSER ""
    ISRC USUM71807089
    FLAGS DCP
    INDEX 01 00:00:00
FILE "02 - Vilia (Take 5).wav" WAVE
  TRACK 02 AUDIO
    TITLE "Vilia (Take 5)"
    PERFORMER "John Coltrane"
    REM COMPOSER ""
    ISRC USUM71807147
    FLAGS DCP
    INDEX 01 00:00:00
FILE "03 - Untitled Original 11383.wav" WAVE
  TRACK 03 AUDIO
    TITLE "Untitled Original 11383"
    PERFORMER "John Coltrane"
    REM COMPOSER ""
    ISRC USUM71807086
    FLAGS DCP
    INDEX 01 00:00:00
FILE "04 - Nature Boy.wav" WAVE
  TRACK 04 AUDIO
    TITLE "Nature Boy"
    PERFORMER "John Coltrane"
    REM COMPOSER ""
    ISRC USUM71807087
    FLAGS DCP
    INDEX 01 00:00:00
FILE "05 - Impressions (Take 1).wav" WAVE
  TRACK 05 AUDIO
    TITLE "Impressions (Take 1)"
    PERFORMER "John Coltrane"
    REM COMPOSER ""
    ISRC USUM71807148
    FLAGS DCP
    INDEX 01 00:00:00
FILE "06 - Impressions (Take 2).wav" WAVE
  TRACK 06 AUDIO
    TITLE "Impressions (Take 2)"
    PERFORMER "John Coltrane"
    REM COMPOSER ""
    ISRC USUM71807149
    FLAGS DCP
    INDEX 01 00:00:00
FILE "07 - Impressions (Take 3).wav" WAVE
  TRACK 07 AUDIO
    TITLE "Impressions (Take 3)"
    PERFORMER "John Coltrane"
    REM COMPOSER ""
    ISRC USUM71807144
    FLAGS DCP
    INDEX 01 00:00:00
FILE "08 - Impressions (Take 4).wav" WAVE
  TRACK 08 AUDIO
    TITLE "Impressions (Take 4)"
    PERFORMER "John Coltrane"
    REM COMPOSER ""
    ISRC USUM71807150
    FLAGS DCP
    INDEX 01 00:00:00
FILE "09 - Untitled Original 11386 (Take 1).wav" WAVE
  TRACK 09 AUDIO
    TITLE "Untitled Original 11386 (Take 1)"
    PERFORMER "John Coltrane"
    REM COMPOSER ""
    ISRC USUM71807143
    FLAGS DCP
    INDEX 01 00:00:00
FILE "10 - Untitled Original 11386 (Take 2).wav" WAVE
  TRACK 10 AUDIO
    TITLE "Untitled Original 11386 (Take 2)"
    PERFORMER "John Coltrane"
    REM COMPOSER ""
    ISRC USUM71807151
    FLAGS DCP
    INDEX 01 00:00:00
FILE "11 - Untitled Original 11386 (Take 5).wav" WAVE
  TRACK 11 AUDIO
    TITLE "Untitled Original 11386 (Take 5)"
    PERFORMER "John Coltrane"
    REM COMPOSER ""
    ISRC USUM71807152
    FLAGS DCP
    INDEX 01 00:00:00
FILE "12 - One Up, One Down (Take 1).wav" WAVE
  TRACK 12 AUDIO
    TITLE "One Up, One Down (Take 1)"
    PERFORMER "John Coltrane"
    REM COMPOSER ""
    ISRC USUM71807146
    FLAGS DCP
    INDEX 01 00:00:00
FILE "13 - One Up, One Down (Take 6).wav" WAVE
  TRACK 13 AUDIO
    TITLE "One Up, One Down (Take 6)"
    PERFORMER "John Coltrane"
    REM COMPOSER ""
    ISRC USUM71807153
    FLAGS DCP
    INDEX 01 00:00:00

CD 02
REM GENRE Jazz
REM DATE 2018
REM DISCID 8C0F680A
REM COMMENT "ExactAudioCopy v1.3"
CATALOG 0602577089053
PERFORMER "John Coltrane"
TITLE "1963: New Directions"
REM COMPOSER ""
FILE "01 - John Coltrane - Slow Blues.wav" WAVE
  TRACK 01 AUDIO
    TITLE "Slow Blues"
    PERFORMER "John Coltrane"
    REM COMPOSER ""
    ISRC USUM71807145
    FLAGS DCP
    INDEX 01 00:00:00
FILE "02 - John Coltrane, Johnny Hartman - They Say It's Wonderful.wav" WAVE
  TRACK 02 AUDIO
    TITLE "They Say It's Wonderful"
    PERFORMER "John Coltrane, Johnny Hartman"
    REM COMPOSER ""
    ISRC USMC16352813
    FLAGS DCP
    INDEX 01 00:00:00
FILE "03 - John Coltrane, Johnny Hartman - Lush Life.wav" WAVE
  TRACK 03 AUDIO
    TITLE "Lush Life"
    PERFORMER "John Coltrane, Johnny Hartman"
    REM COMPOSER ""
    ISRC USMC16352661
    FLAGS DCP
    INDEX 01 00:00:00
FILE "04 - John Coltrane, Johnny Hartman - My One and Only Love.wav" WAVE
  TRACK 04 AUDIO
    TITLE "My One and Only Love"
    PERFORMER "John Coltrane, Johnny Hartman"
    REM COMPOSER ""
    ISRC USMC16353721
    FLAGS DCP
    INDEX 01 00:00:00
FILE "05 - John Coltrane, Johnny Hartman - Autumn Serenade.wav" WAVE
  TRACK 05 AUDIO
    TITLE "Autumn Serenade"
    PERFORMER "John Coltrane, Johnny Hartman"
    REM COMPOSER ""
    ISRC USMC19955459
    FLAGS DCP
    INDEX 01 00:00:00
FILE "06 - John Coltrane, Johnny Hartman - Dedicated to You.wav" WAVE
  TRACK 06 AUDIO
    TITLE "Dedicated to You"
    PERFORMER "John Coltrane, Johnny Hartman"
    REM COMPOSER ""
    ISRC USMC16352814
    FLAGS DCP
    INDEX 01 00:00:00
FILE "07 - John Coltrane, Johnny Hartman - You Are Too Beautiful.wav" WAVE
  TRACK 07 AUDIO
    TITLE "You Are Too Beautiful"
    PERFORMER "John Coltrane, Johnny Hartman"
    REM COMPOSER ""
    ISRC USMC16352816
    FLAGS DCP
    INDEX 01 00:00:00
FILE "08 - John Coltrane - After the Rain.wav" WAVE
  TRACK 08 AUDIO
    TITLE "After the Rain"
    PERFORMER "John Coltrane"
    REM COMPOSER ""
    ISRC USMC16352616
    FLAGS DCP
    INDEX 01 00:00:00
FILE "09 - John Coltrane - Dear Old Stockholm.wav" WAVE
  TRACK 09 AUDIO
    TITLE "Dear Old Stockholm"
    PERFORMER "John Coltrane"
    REM COMPOSER ""
    ISRC USMC16311468
    FLAGS DCP
    INDEX 01 00:00:00
FILE "10 - John Coltrane - I Want to Talk About You (Live at the Newport Jazz Festival - July 7, 1963).wav" WAVE
  TRACK 10 AUDIO
    TITLE "I Want to Talk About You (Live at the Newport Jazz Festival - July 7, 1963)"
    PERFORMER "John Coltrane"
    REM COMPOSER ""
    ISRC USGR10110596
    FLAGS DCP
    INDEX 01 00:00:00

CD 03
REM GENRE Jazz
REM DATE 2018
REM DISCID 6E10EE07
REM COMMENT "ExactAudioCopy v1.3"
CATALOG 0602577089060
PERFORMER "John Coltrane"
TITLE "1963: New Directions"
REM COMPOSER ""
FILE "01 - My Favorite Things (Live at the Newport Jazz Festival - July 7, 1963).wav" WAVE
  TRACK 01 AUDIO
    TITLE "My Favorite Things (Live at the Newport Jazz Festival - July 7, 1963)"
    PERFORMER "John Coltrane"
    REM COMPOSER ""
    ISRC USGR19900574
    FLAGS DCP
    INDEX 01 00:00:00
FILE "02 - Impressions (Live at the Newport Jazz Festival - July 7, 1963).wav" WAVE
  TRACK 02 AUDIO
    TITLE "Impressions (Live at the Newport Jazz Festival - July 7, 1963)"
    PERFORMER "John Coltrane"
    REM COMPOSER ""
    ISRC USGR10110597
    FLAGS DCP
    INDEX 01 00:00:00
FILE "03 - The Promise (Live at Birdland, NYC - October 8, 1963).wav" WAVE
  TRACK 03 AUDIO
    TITLE "The Promise (Live at Birdland, NYC - October 8, 1963)"
    PERFORMER "John Coltrane"
    REM COMPOSER ""
    ISRC USMC16323866
    FLAGS DCP
    INDEX 01 00:00:00
FILE "04 - I Want to Talk About You (Live at Birdland, NYC - October 8, 1963).wav" WAVE
  TRACK 04 AUDIO
    TITLE "I Want to Talk About You (Live at Birdland, NYC - October 8, 1963)"
    PERFORMER "John Coltrane"
    REM COMPOSER ""
    ISRC USMC16323862
    FLAGS DCP
    INDEX 01 00:00:00
FILE "05 - Afro Blue (Live at Birdland, NYC - October 8, 1963).wav" WAVE
  TRACK 05 AUDIO
    TITLE "Afro Blue (Live at Birdland, NYC - October 8, 1963)"
    PERFORMER "John Coltrane"
    REM COMPOSER ""
    ISRC USMC16453799
    FLAGS DCP
    INDEX 01 00:00:00
FILE "06 - Your Lady.wav" WAVE
  TRACK 06 AUDIO
    TITLE "Your Lady"
    PERFORMER "John Coltrane"
    REM COMPOSER ""
    ISRC USMC16349718
    FLAGS DCP
    INDEX 01 00:00:00
FILE "07 - Alabama.wav" WAVE
  TRACK 07 AUDIO
    TITLE "Alabama"
    PERFORMER "John Coltrane"
    REM COMPOSER ""
    ISRC USMC16349717
    FLAGS DCP
    INDEX 01 00:00:00
Приватный:
Нет (DHT включён)
Размер:
1.16 Гб (1,242,253,178 байт) » файлов: 52
Участники:
12 раздают, 0 качают (12 участников всего)
Внешние участники:
--- [ Обновить ]
For power users only: no seeders - write to support@pro-jazz.com. Для power user: нет сидеров - пишите на support@pro-jazz.com.
00:54
239
Нет комментариев. Ваш будет первым!