Поиск

2018 Joe Armon-Jones - Starting Today {Brownswood} [24-44,1]

2018 Joe Armon-Jones - Starting Today {Brownswood} [24-44,1]
Стили:
Состав:
  • Armon-Jones - Wurlitzer (1-5), piano (6), vocals (2)
  • Nubya Garcia - tenor saxophone (1, 3-5)
  • James Mollison - tenor saxophone (3-5)
  • Dylan Jones - trumpet (1, 3-5)
  • Oscar Jerome - guitar (2-6), vocals (4)
  • David Mrakpor - bass (2, 3, 5, 6)
  • Mutale Chashi - bass (1, 4)
  • Moses Boyd - drums
  • Kwake Bass - drums (1, 4)
  • Maxwell Owin - effects ( 4, 6)
  • Asheber - vocals (1)
  • Ego Ella May - vocals (2, 5, 6)
  • Big Sharer vocals (5, 6)

Формат записи/Источник записи: [TR24][OF]
Наличие водяных знаков: Нет
Год издания/переиздания диска: 2018
Издатель (лейбл): Brownswood Recordings
Продолжительность: 46:46
Контейнер: FLAC (*.flac)
Тип рипа: tracks
Разрядность: 24/44,1
Формат: PCM
Количество каналов: 2.0
Наличие сканов в содержимом раздачи: Только обложка альбома
Источник: qobuz.com

Треклист:
01. Starting Today (9:04)
02. Almost Went Too Far (6:25)
03. Mollison Dub (10:16)
04. London's Face (9:49)
05. Ragify (9:48)
06. Outro (Fornow) (1:24)

 
Лог проверки качества
foobar2000 1.3.9 / Dynamic Range Meter 1.1.1
log date: 2018-05-09 15:06:21
--------------------------------------------------------------------------------
Analyzed: Joe Armon-Jones / Starting Today
--------------------------------------------------------------------------------
DR         Peak         RMS     Duration Track
--------------------------------------------------------------------------------
DR7       -0.20 dB   -10.15 dB      9:04 01-Starting Today
DR10      -0.21 dB   -11.28 dB      6:25 02-Almost Went Too Far
DR9       -0.26 dB   -10.37 dB     10:16 03-Mollison Dub
DR9       -0.20 dB   -10.24 dB      9:49 04-London's Face
DR8       -0.20 dB    -9.42 dB      9:48 05-Ragify
DR10      -0.22 dB   -13.11 dB      1:24 06-Outro (Fornow)
--------------------------------------------------------------------------------
Number of tracks:  6
Official DR value: DR9
Samplerate:        44100 Hz
Channels:          2
Bits per sample:   24
Bitrate:           1395 kbps
Codec:             FLAC
================================================================================

 

Приватный:
Нет (DHT включён)
Размер:
511.44 Мб (536,279,707 байт) » файлов: 9
Участники:
3 раздают, 0 качают (3 участников всего)
Внешние участники:
--- [ Обновить ]
16:44
32
RSS
Нет комментариев. Ваш будет первым!