Поиск

2018 Harold Lopez-Nussa - Un Dia Cualquiera {Mack Avenue MAC1135} [CD]

2018 Harold Lopez-Nussa - Un Dia Cualquiera {Mack Avenue MAC1135} [CD]
Стили:
Издатель (лейбл):
Номер по каталогу:
MAC1135
Доп. инфо:
Лог создания рипа
Exact Audio Copy V1.3 from 2. September 2016
EAC extraction logfile from 25. July 2018, 16:48
Harold López-Nussa / Un Día Cualquiera
Used drive : ASUS BW-16D1HT Adapter: 1 ID: 0
Read mode : Secure
Utilize accurate stream : Yes
Defeat audio cache : Yes
Make use of C2 pointers : No
Read offset correction : 6
Overread into Lead-In and Lead-Out : No
Fill up missing offset samples with silence : Yes
Delete leading and trailing silent blocks : No
Null samples used in CRC calculations : Yes
Used interface : Native Win32 interface for Win NT & 2000
Gap handling : Appended to previous track
Used output format : User Defined Encoder
Selected bitrate : 1024 kBit/s
Quality : High
Add ID3 tag : No
Command line compressor : C:\Program Files (x86)\Exact Audio Copy\FLAC\flac.exe
Additional command line options : -8 -V -T "ARTIST=%artist%" -T "TITLE=%title%" -T "ALBUM=%albumtitle%" -T "DATE=%year%" -T "TRACKNUMBER=%tracknr%" -T "GENRE=%genre%" -T "PERFORMER=%albuminterpret%" -T "COMPOSER=%composer%" %haslyrics%--tag-from-file=LYRICS="%lyricsfile%"%haslyrics% -T "ALBUMARTIST=%albumartist%" -T "ALBUM ARTIST=%albumartist%" -T "DISCNUMBER=%cdnumber%" -T "TOTALDISCS=%totalcds%" -T "TOTALTRACKS=%numtracks%" -T "COMMENT=EAC V1.0 beta 2, Secure Mode, Test & Copy, AccurateRip, FLAC -8" %source% -o %dest%
TOC of the extracted CD
Track | Start | Length | Start sector | End sector
---------------------------------------------------------
1 | 0:00.00 | 3:51.72 | 0 | 17396
2 | 3:51.72 | 4:29.63 | 17397 | 37634
3 | 8:21.60 | 4:48.44 | 37635 | 59278
4 | 13:10.29 | 3:28.41 | 59279 | 74919
5 | 16:38.70 | 5:06.31 | 74920 | 97900
6 | 21:45.26 | 3:32.73 | 97901 | 113873
7 | 25:18.24 | 3:56.22 | 113874 | 131595
8 | 29:14.46 | 4:01.33 | 131596 | 149703
9 | 33:16.04 | 3:39.08 | 149704 | 166136
10 | 36:55.12 | 5:47.56 | 166137 | 192217
11 | 42:42.68 | 4:41.31 | 192218 | 213323
Track 1
Filename C:\pastacube\Harold López-Nussa - Un Día Cualquiera (2018) [FLAC]\01 - Cimarrón.wav
Pre-gap length 0:00:02.00
Peak level 100.0 %
Extraction speed 4.6 X
Track quality 100.0 %
Test CRC 960EF7D1
Copy CRC 960EF7D1
Track not present in AccurateRip database
Copy OK
Track 2
Filename C:\pastacube\Harold López-Nussa - Un Día Cualquiera (2018) [FLAC]\02 - Danza de los ñáñigos.wav
Peak level 98.2 %
Extraction speed 5.2 X
Track quality 100.0 %
Test CRC 6C3D580E
Copy CRC 6C3D580E
Track not present in AccurateRip database
Copy OK
Track 3
Filename C:\pastacube\Harold López-Nussa - Un Día Cualquiera (2018) [FLAC]\03 - Una tarde cualquiera en París (To Bebo Valdés).wav
Peak level 97.8 %
Extraction speed 5.8 X
Track quality 100.0 %
Test CRC 0B06C08B
Copy CRC 0B06C08B
Track not present in AccurateRip database
Copy OK
Track 4
Filename C:\pastacube\Harold López-Nussa - Un Día Cualquiera (2018) [FLAC]\04 - Preludio (To José Juan).wav
Peak level 94.3 %
Extraction speed 5.9 X
Track quality 100.0 %
Test CRC 08CCFC9A
Copy CRC 08CCFC9A
Track not present in AccurateRip database
Copy OK
Track 5
Filename C:\pastacube\Harold López-Nussa - Un Día Cualquiera (2018) [FLAC]\05 - Eleguá.wav
Peak level 100.0 %
Extraction speed 5.7 X
Track quality 99.9 %
Test CRC 5CAAC60E
Copy CRC 5CAAC60E
Track not present in AccurateRip database
Copy OK
Track 6
Filename C:\pastacube\Harold López-Nussa - Un Día Cualquiera (2018) [FLAC]\06 - Hialeah.wav
Peak level 97.8 %
Extraction speed 6.7 X
Track quality 100.0 %
Test CRC D722219E
Copy CRC D722219E
Track not present in AccurateRip database
Copy OK
Track 7
Filename C:\pastacube\Harold López-Nussa - Un Día Cualquiera (2018) [FLAC]\07 - Ma petite dans la boulangerie.wav
Peak level 93.9 %
Extraction speed 7.1 X
Track quality 100.0 %
Test CRC 10F617A3
Copy CRC 10F617A3
Track not present in AccurateRip database
Copy OK
Track 8
Filename C:\pastacube\Harold López-Nussa - Un Día Cualquiera (2018) [FLAC]\08 - Y la negra bailaba.wav
Peak level 100.0 %
Extraction speed 7.4 X
Track quality 100.0 %
Test CRC 6C10A815
Copy CRC 6C10A815
Track not present in AccurateRip database
Copy OK
Track 9
Filename C:\pastacube\Harold López-Nussa - Un Día Cualquiera (2018) [FLAC]\09 - Conga total,El cumbanchero.wav
Peak level 100.0 %
Extraction speed 6.2 X
Track quality 99.9 %
Test CRC 195B4056
Copy CRC 195B4056
Track not present in AccurateRip database
Copy OK
Track 10
Filename C:\pastacube\Harold López-Nussa - Un Día Cualquiera (2018) [FLAC]\10 - Contigo en la distancia.wav
Peak level 94.0 %
Extraction speed 8.4 X
Track quality 100.0 %
Test CRC 6649C552
Copy CRC 6649C552
Track not present in AccurateRip database
Copy OK
Track 11
Filename C:\pastacube\Harold López-Nussa - Un Día Cualquiera (2018) [FLAC]\11 - Mi son cerra'o.wav
Peak level 96.0 %
Extraction speed 8.5 X
Track quality 100.0 %
Test CRC 956C4063
Copy CRC 956C4063
Track not present in AccurateRip database
Copy OK
None of the tracks are present in the AccurateRip database
No errors occurred
End of status report
---- CUETools DB Plugin V2.1.6
[CTDB TOCID: QHAHC5MyERHQIKLN.oxjR2FuZlU-] found
Submit result: QHAHC5MyERHQIKLN.oxjR2FuZlU- has been confirmed
Track | CTDB Status
1 | (2/2) Accurately ripped
2 | (2/2) Accurately ripped
3 | (2/2) Accurately ripped
4 | (2/2) Accurately ripped
5 | (2/2) Accurately ripped
6 | (2/2) Accurately ripped
7 | (2/2) Accurately ripped
8 | (2/2) Accurately ripped
9 | (2/2) Accurately ripped
10 | (2/2) Accurately ripped
11 | (2/2) Accurately ripped
==== Log checksum 13FA42EF21735FDF0DC514E4B664C9D3DD7F982C1A2186A7CBC7A2C44A9E2750 ====
Содержание индексной карты (.CUE)
REM GENRE Jazz
REM DATE 2018
REM DISCID 830B1C0B
REM COMMENT "ExactAudioCopy v1.3"
CATALOG 0673203113527
PERFORMER "Harold Lopez-Nussa"
TITLE "Un Dia Cualquiera"
FILE "01 - Cimarron.wav" WAVE
TRACK 01 AUDIO
TITLE "Cimarron"
PERFORMER "Harold Lopez-Nussa"
ISRC USMAR1813501
INDEX 01 00:00:00
FILE "02 - Danza de los nanigos.wav" WAVE
TRACK 02 AUDIO
TITLE "Danza de los nanigos"
PERFORMER "Harold Lopez-Nussa"
ISRC USMAR1813502
INDEX 01 00:00:00
FILE "03 - Una tarde cualquiera en Paris (To Bebo Valdes).wav" WAVE
TRACK 03 AUDIO
TITLE "Una tarde cualquiera en Paris (To Bebo Valdes)"
PERFORMER "Harold Lopez-Nussa"
ISRC USMAR1813503
INDEX 01 00:00:00
FILE "04 - Preludio (To Jose Juan).wav" WAVE
TRACK 04 AUDIO
TITLE "Preludio (To Jose Juan)"
PERFORMER "Harold Lopez-Nussa"
ISRC USMAR1813504
INDEX 01 00:00:00
FILE "05 - Elegua.wav" WAVE
TRACK 05 AUDIO
TITLE "Elegua"
PERFORMER "Harold Lopez-Nussa"
ISRC USMAR1813505
INDEX 01 00:00:00
FILE "06 - Hialeah.wav" WAVE
TRACK 06 AUDIO
TITLE "Hialeah"
PERFORMER "Harold Lopez-Nussa"
ISRC USMAR1813506
INDEX 01 00:00:00
FILE "07 - Ma petite dans la boulangerie.wav" WAVE
TRACK 07 AUDIO
TITLE "Ma petite dans la boulangerie"
PERFORMER "Harold Lopez-Nussa"
ISRC USMAR1813507
INDEX 01 00:00:00
FILE "08 - Y la negra bailaba.wav" WAVE
TRACK 08 AUDIO
TITLE "Y la negra bailaba"
PERFORMER "Harold Lopez-Nussa"
ISRC USMAR1813508
INDEX 01 00:00:00
FILE "09 - Conga total,El cumbanchero.wav" WAVE
TRACK 09 AUDIO
TITLE "Conga total/El cumbanchero"
PERFORMER "Harold Lopez-Nussa"
ISRC USMAR1813509
INDEX 01 00:00:00
FILE "10 - Contigo en la distancia.wav" WAVE
TRACK 10 AUDIO
TITLE "Contigo en la distancia"
PERFORMER "Harold Lopez-Nussa"
ISRC USMAR1813510
INDEX 01 00:00:00
FILE "11 - Mi son cerra'o.wav" WAVE
TRACK 11 AUDIO
TITLE "Mi son cerra'o"
PERFORMER "Harold Lopez-Nussa"
ISRC USMAR1813511
INDEX 01 00:00:00
Отчет CUETools
[CUETools log; Date: 17.09.2018 0:16:22; Version: 2.1.5]
[CTDB TOCID: QHAHC5MyERHQIKLN.oxjR2FuZlU-] found.
Track | CTDB Status
1 | (5/5) Accurately ripped
2 | (5/5) Accurately ripped
3 | (5/5) Accurately ripped
4 | (5/5) Accurately ripped
5 | (5/5) Accurately ripped
6 | (5/5) Accurately ripped
7 | (5/5) Accurately ripped
8 | (5/5) Accurately ripped
9 | (5/5) Accurately ripped
10 | (5/5) Accurately ripped
11 | (5/5) Accurately ripped
[AccurateRip ID: 00132261-00a602d4-830b1c0b] disk not present in database.
Track Peak [ CRC32 ] [W/O NULL] [ LOG ]
-- 100,0 [1F8939CC] [D5949DEF]
01 100,0 [960EF7D1] [B16A4DDF] CRC32
02 98,2 [6C3D580E] [BD1224FD] CRC32
03 97,8 [0B06C08B] [B40DA003] CRC32
04 94,3 [08CCFC9A] [F6E53899] CRC32
05 100,0 [5CAAC60E] [F384E221] CRC32
06 97,8 [D722219E] [0400B4F4] CRC32
07 93,9 [10F617A3] [D972F558] CRC32
08 100,0 [6C10A815] [A21D58B2] CRC32
09 100,0 [195B4056] [27227766] CRC32
10 94,0 [6649C552] [A0114306] CRC32
11 96,0 [956C4063] [FE3EB87D] CRC32
Review by Britt Robson
Pianist Harold López-Nussa continues to hone his unique version of folk-jazz, intimately drawn from the conservatories and barrios of his native Cuba, where he still resides. Un Día Cualquiera translates into “Just Another Day,” and depicting the typical joys, struggles, and beliefs informing all of our lives is his intention here, with the understanding that Cuban life is what he knows best.
He opens with a fanfare, the whirlwind “Cimarrón,” an original composition he first recorded back on A New Day in 2013. But then he steers toward the soul of Cuba with “Danza de los Nañigos,” the first of two covers by Ernesto Lecuona, known as the “Gershwin of Cuba” for the amiable sophistication and indigenous influences of his jazz/pop/classical hybrids. That’s followed by a lovely tribute to the pianist Bebo Valdés (Chucho’s father), “Una Tarde Cualquiera en Paris,” which captures the lively elegance and flow of Bebo’s approach to the ivories. This is where we first notice the woodier tone of Cuban Gaston Joya, who replaces the Senegalese bassist Alune Wade in López-Nussa’s trio, beside his brother, Ruy Adrian López-Nussa, on drums.
The rest of Un Día Cualquiera is a cohesive hopscotch through the touchstones and colors of Cuban culture. The harsh rhythms of “Elegua” mimic the bata drums and Yoruba chants López-Nussa heard in religious ceremonies growing up. “Hialeah,” named after the heavily Cuban Florida city outside of Miami, is sleek and fun-loving, a great companion to the circus-like bounce of Lecuona’s “Y la Negra Bailaba” and Rafael Hernandez’s classic dance-party rumba from the 1960s, “El Cumbanchero.” A gorgeous, emotionally resonant take on the 1946 bolero “Contigo en la Distancia” pays tribute to López-Nussa’s former employer, the great singer Omara Portuondo, who taught him the value of interpreting a song. The closer, “Mi Son Cerra’o,” is loose-limbed group improvisation patterned after the descarga jam sessions on son montunos and boleros in the ’50s. The atmosphere makes it feel like you’re with folks you want to get to know better.
No seeders - write personal message to M0p94ok. Any questions - support@pro-jazz.com.
Нет сидеров - пишите в личку M0p94ok. Есть вопросы - support@pro-jazz.com
03:03
165
Нет комментариев. Ваш будет первым!