Поиск

2018 Fred Farell - Distant Song {Whaling City Sound WCS 103}

2018 Fred Farell - Distant Song {Whaling City Sound WCS 103}
Издатель (лейбл):

Состав:
  • Fred Farell – vocals
  • Dave Liebman – sax (tenor, soprano), wooden recorder
  • Richie Beirach – piano

Год издания: 26 января 2018
Номер по каталогу: WCS 103
Страна исполнителя: USA
Аудиокодек: FLAC (*.flac)
Тип рипа: tracks
Битрейт аудио: lossless
Продолжительность: 59:24
Источник (релизер): WEB
Наличие сканов: нет

Треклист:
01. Broken Wing
02. Lonnie’s Song
03. Forgotten Fantasies (Instrumental)
04. Leaving
05. Tomorrow’s Expectations
06. Sunday Song
07. Mitsuku
08. Zal (Instrumental)
09. Places
10. Distant Song

Об альбоме:
С глубокой, эмоциональной и интересной во многих отношениях работы открывает список своих релизов 2018 года известный независимый джазовый лейбл из Северного Дартмута, Массачусетс Whaling City Sound. Саксофонист Дэйв Либмэн и пианист Ричи Бейрах – умудренные опытом, но по-прежнему активные и полные креативности музыканты, чьи имена уже завоевали себе право остаться в джазовой истории. Неоднократно они играли и записывались совместно, и вот – опять общий проект, в который каждый из музыкантов вложил по пять своих композиций. Однако, имена Либмэна и Бейраха на обложке Distant Song набраны шрифтом помельче. Крупно здесь значится имя третьего участника проекта – Фреда Фарелла, о котором надо рассказать подробнее.
Фред Фарелл начал профессионально петь джаз давно, еще во второй половине 60-х годов, когда служил в американской армии. Позже, в 70-х и начале 80-х годов он уже получил известность, выступая в лофтах и джазовых клубах Нью-Йорка. Кстати, одним из его педагогов по джазовой импровизации был в свое время Ричи Бейрах. Фарелл выступал в Cobi Narita’s Universal Jazz Coalition, в Don Hanson Ensemble, сотрудничал с Декстером Гордоном, Кенни Бэроном, Руфусом Рейдом и другими известными джазовыми мастерами. Его всегда интересовала также музыка госпел, он и сегодня является одним из лидеров коллектива JazzLite, который в своей музыке сочетает, как джаз, так и госпел.
Для Distant Song Фарелл сочинил тексты к восьми из десяти композиций своих партнеров, так что это по преимуществу альбом вокального джаза. Лишь Forgotten Fantasies Либмэна и Zal Бейраха исполняются, как чисто инструментальные композиции. Все остальные треки – это сочетание голоса Фреда Фарелла, саксофонов (чаще сопрано, но также и тенора) Либмэна и фортепьяно Бейраха. Сочетание, прямо скажем, необычное. Возможно, сказывается увлеченность Фреда музыкой госпел, но его голос не вызывает в воображении образ с иголочки одетого певца, поющего со сцены. Меня не оставляло ощущение, что «домашний», интимный, но глубоко драматичный голос певца обращен непосредственно ко мне. Фарелл поражает не вокальной эквилибристикой, не классическим скэтом, а создаваемой им атмосферой, очень теплой и глубоко личной. Если же учесть, что в создании этой атмосферы участвуют саксофон такого легендарного мастера, как Дэйв Либмэн и чуткое, романтичное фортепьяно Ричи Бейраха, то все треки альбома превращаются в своеобразные музыкально-драматические спектакли. При этом три «песни» альбома – Lonnie’s Song, Sunday Song и Distant Song, а также Mitsuku я назвал бы настоящими шедеврами. Очень и очень приятное начало года от трех больших мастеров и Whaling City Sound! (Леонид Аускерн, jazzquad.ru)

 
Лог проверки качества
-----------------------
DON'T MODIFY THIS FILE
-----------------------
PERFORMER: auCDtect Task Manager, ver. 1.6.0 RC1 build 1.6.0.1
Copyright (c) 2008-2010 y-soft. All rights reserved
http://y-soft.org
ANALYZER: auCDtect: CD records authenticity detector, version 0.8.2
Copyright (c) 2004 Oleg Berngardt. All rights reserved.
Copyright (c) 2004 Alexander Djourik. All rights reserved.
FILE: 10 - Distant Song.flac
  Size: 26643975 Hash: 7C2C0A6DFC6A04B5E644785793211F39 Accuracy: -m0
  Conclusion: CDDA 58%
  Signature: E77D98E0299AA70A521033BC9FF71E454AE85D46
FILE: 09 - Places.flac
  Size: 21233029 Hash: D5960C11B64D427E5EDEA427CF6DDAFE Accuracy: -m0
  Conclusion: CDDA 100%
  Signature: BA332FA665BE52F3ED7B9302E187B486ABA4EA7E
FILE: 08 - Zal.flac
  Size: 24796409 Hash: 32749245DAA97A299B6D6AA8D2A5E429 Accuracy: -m0
  Conclusion: CDDA 58%
  Signature: F37DB58461B9737AFBE991174D2CA8D1B2136819
FILE: 07 - Mitsuku.flac
  Size: 34494258 Hash: 5282E90E369C80BA2AA53617E630E148 Accuracy: -m0
  Conclusion: CDDA 43%
  Signature: AD68F509278B50E64977F5A1C6AEDA10238519AC
FILE: 06 - Sunday Song.flac
  Size: 21147686 Hash: 0F63581F35897BD2852B9CC6D7BA6CC0 Accuracy: -m0
  Conclusion: CDDA 100%
  Signature: B63B7E9C8251522D460065B8492EC00D09FADC2E
FILE: 05 - Tomorrow's Expectations.flac
  Size: 33742228 Hash: BF8591B712B1F5CA6797126E2F0AE8F4 Accuracy: -m0
  Conclusion: CDDA 100%
  Signature: 73C05A93902BAE9F71B50FB9198D308F4A581D36
FILE: 04 - Leaving.flac
  Size: 34670976 Hash: 7DAC0328AEEC23D748248CA13CF2BBBB Accuracy: -m0
  Conclusion: CDDA 99%
  Signature: E316CB02CEC9A7302E60EBC990381F2AE23BEA24
FILE: 03 - Forgotten Fantasie.flac
  Size: 26728558 Hash: E6B1710A9F94AB60DE5253DD0C014164 Accuracy: -m0
  Conclusion: MPEG 93%
  Signature: 63B519D5C9F5B8349FD70F6874FF1D85CA9A2D3A
FILE: 02 - Lonnie's Song.flac
  Size: 23842991 Hash: CDECD5481B1FB7613E987D3ABE80348F Accuracy: -m0
  Conclusion: CDDA 100%
  Signature: 23B69AED1393B039D8CF2F29C3E06709F2D7131B
FILE: 01 - Broken Wing.flac
  Size: 29454866 Hash: B97BB3B181F8F19E590D33E35149EC48 Accuracy: -m0
  Conclusion: CDDA 100%
  Signature: F3F2C6DA0CB3436FD9A52024EBE54C6933C72E89
••••••••••
foobar2000 1.3.12 / Замер динамического диапазона (DR) 1.1.1
Дата отчёта:  2018-04-30 10:14:28
--------------------------------------------------------------------------------
Анализ:   Fred Farell, Dave Liebman, Richie Beirach / Distant Song
--------------------------------------------------------------------------------
DR         Пики         RMS           Продолжительность трека
--------------------------------------------------------------------------------
DR11      -0.07 дБ   -15.87 дБ      5:56 01-Broken Wing
DR9       -0.20 дБ   -13.70 дБ      4:55 02-Lonnie's Song
DR10      -0.14 дБ   -15.44 дБ      6:18 03-Forgotten Fantasie
DR12      -0.27 дБ   -17.22 дБ      7:35 04-Leaving
DR12      -0.21 дБ   -16.60 дБ      6:59 05-Tomorrow's Expectations
DR10      -0.12 дБ   -15.65 дБ      4:25 06-Sunday Song
DR11      -0.03 дБ   -16.67 дБ      7:58 07-Mitsuku
DR9       -0.17 дБ   -13.78 дБ      5:20 08-Zal
DR12      -0.37 дБ   -16.77 дБ      4:23 09-Places
DR10      -0.09 дБ   -14.59 дБ      5:35 10-Distant Song
--------------------------------------------------------------------------------
Количество треков: 10
Реальные значения DR: DR11
Частота:   44100 Гц
Каналов:   2
Разрядность:   16
Битрейт:   627 кбит/с
Кодек:   FLAC
================================================================================
 
Скриншоты спектра частот

 

Приватный:
Нет (DHT включён)
Размер:
264.87 Мб (277,734,805 байт) » файлов: 13
Участники:
5 раздают, 0 качают (5 участников всего)
Внешние участники:
--- [ Обновить ]
12:26
61
RSS
Нет комментариев. Ваш будет первым!