Вы используете незарегистрированную версию компонента "Вкладки"!

Поиск

2018 Florian Egli Weird Beard – Orientation {Intakt} [24-88,2]

2018 Florian Egli Weird Beard – Orientation {Intakt} [24-88,2]
Стили:
Издатель (лейбл):
Доп. инфо:

Формат записи/Источник записи: [TR24][OF]
Наличие водяных знаков: Нет
Год издания: 2018
Продолжительность: 00:42:58
Наличие сканов в содержимом раздачи: Только обложка
Источник: bandcamp
Контейнер: FLAC (*.flac)
Тип рипа: tracks
Разрядность: 24/88,2
Формат: PCM
Количество каналов: 2.0

Лог проверки качества
foobar2000 1.3.16 / Dynamic Range Meter 1.1.1
log date: 2019-04-02 00:51:44

--------------------------------------------------------------------------------
Analyzed: Florian Egli Weird Beard / Orientation
--------------------------------------------------------------------------------

DR         Peak         RMS     Duration Track
--------------------------------------------------------------------------------
DR9       -0.03 dB   -10.73 dB      4:24 01-Hanako
DR9       -0.03 dB   -12.68 dB      7:19 02-Empty Shell
DR10       0.00 dB   -11.02 dB      6:32 03-Orientation
DR9       -5.35 dB   -19.73 dB      5:35 04-Winter
DR10      -0.04 dB   -11.44 dB      4:56 05-The Big Wasy
DR10      -0.03 dB   -12.47 dB      5:30 06-The Cat
DR9       -0.03 dB   -11.83 dB      4:28 07-No More Rain
DR11      -0.03 dB   -14.26 dB      4:18 08-Playground
--------------------------------------------------------------------------------

Number of tracks:  8
Official DR value: DR10

Samplerate:        88200 Hz
Channels:          2
Bits per sample:   24
Bitrate:           2381 kbps
Codec:             FLAC
================================================================================
Any questions - support@pro-jazz.com. Есть вопросы - support@pro-jazz.com
12:41
240
Нет комментариев. Ваш будет первым!